0
SECTION
2
HEADER
9
$EXTMAX
10
841.0000000000
20
594.0000000000
9
$EXTMIN
10
0.0000000000
20
0.0000000000
9
$LIMMIN
10
0.0000000000
20
0.0000000000
9
$LIMMAX
10
841.0000000000
20
594.0000000000
9
$VIEWCTR
10
420.5000000000
20
297.0000000000
9
$VIEWSIZE
40
594.0000000000
9
$CLAYER
8
0
9
$LTSCALE
40
46.2550000000
9
$CELTYPE
6
BYLAYER
9
$DIMSCALE
40
1
9
$DIMASZ
40
3.5000000000
9
$DIMEXO
40
5.2562500000
9
$DIMDLI
40
31.9580000000
9
$DIMEXE
40
15.1380000000
9
$DIMCEN
40
7.5690000000
9
$DIMLFAC
40
1.0000000000
0
ENDSEC
0
SECTION
2
TABLES
0
TABLE
2
LTYPE
70
6
0
LTYPE
2
BYBLOCK
70
0
3

72
65
73
0
40
0.0
0
LTYPE
2
BYLAYER
70
0
3

72
65
73
0
40
0.0
0
LTYPE
2
CONTINUOUS
70
64
3
Solid line
72
65
73
0
40
0
0
LTYPE
2
CENTER
70
64
3
____ _ ____ _ ____ _ ____ _ ____ _ ____ _ ____
72
65
73
4
40
0.6
49
0.375
49
-0.075
49
0.075
49
-0.075
0
LTYPE
2
HIDDEN
70
64
3
- - - - - - - - - - - - - - - - - - - -
72
65
73
2
40
0.2
49
0.1
49
-0.1
0
LTYPE
2
PHANTOM
70
64
3
_____ _ _ _____ _ _ _____ _ _ _____
72
65
73
6
40
0.8
49
0.45
49
-0.05
49
0.1
49
-0.05
49
0.1
49
-0.05
0
LTYPE
2
DOT
70
64
3
. . . . . . . . . . . . . . . . . . . .
72
65
73
2
40
0.2
49
0.1
49
-0.1
0
LTYPE
2
DASHED
70
64
3
- - - - - - - - - - - - - - - - - - - -
72
65
73
2
40
0.2
49
0.1
49
-0.1
0
ENDTAB
0
TABLE
2
LAYER
70
36
0
LAYER
2
0
70
0
62
7
6
CONTINUOUS
0
LAYER
2
DEFAULT_1
70
0
62
7
6
CENTER
0
LAYER
2
DEFAULT_2
70
0
62
8
6
HIDDEN
0
LAYER
2
DEFAULT_3
70
0
62
7
6
PHANTOM
0
LAYER
2
10000_FRONT
70
0
62
7
6
CONTINUOUS
0
LAYER
2
10100_DIM_FRONT
70
0
62
7
6
CONTINUOUS
0
LAYER
2
10300_FRONT_GERMAN_ENGLISH
70
0
62
7
6
CONTINUOUS
0
LAYER
2
11000_LEFT
70
0
62
7
6
CONTINUOUS
0
LAYER
2
11100_DIM_LEFT
70
0
62
7
6
CONTINUOUS
0
LAYER
2
11300_LEFT_GERMAN_ENGLISH
70
0
62
7
6
CONTINUOUS
0
LAYER
2
12000_RIGHT
70
0
62
7
6
CONTINUOUS
0
LAYER
2
12100_DIM_RIGHT
70
0
62
7
6
CONTINUOUS
0
LAYER
2
12300_RIGHT_GERMAN_ENGLISH
70
0
62
7
6
CONTINUOUS
0
LAYER
2
13000_TOP
70
0
62
7
6
CONTINUOUS
0
LAYER
2
13100_DIM_TOP
70
0
62
7
6
CONTINUOUS
0
LAYER
2
13300_TOP_GERMAN_ENGLISH
70
0
62
7
6
CONTINUOUS
0
LAYER
2
14000_BOTTOM
70
0
62
7
6
CONTINUOUS
0
LAYER
2
14100_DIM_BOTTOM
70
0
62
7
6
CONTINUOUS
0
LAYER
2
14300_BOTTOM_GERMAN_ENGLISH
70
0
62
7
6
CONTINUOUS
0
LAYER
2
15000_BACK
70
0
62
7
6
CONTINUOUS
0
LAYER
2
15100_DIM_BACK
70
0
62
7
6
CONTINUOUS
0
LAYER
2
15300_BACK_GERMAN_ENGLISH
70
0
62
7
6
CONTINUOUS
0
LAYER
2
20000_FRONT_O
70
0
62
7
6
CONTINUOUS
0
LAYER
2
20100_DIM_FRONT_O
70
0
62
7
6
CONTINUOUS
0
LAYER
2
20300_FRONT_O_GERMAN_ENGLISH
70
0
62
7
6
CONTINUOUS
0
LAYER
2
40000_ISO
70
0
62
7
6
CONTINUOUS
0
LAYER
2
40300_ISO_GERMAN_ENGLISH
70
0
62
7
6
CONTINUOUS
0
LAYER
2
50000_WIRING
70
0
62
7
6
CONTINUOUS
0
LAYER
2
50300_WIRING_GERMAN_ENGLISH
70
0
62
7
6
CONTINUOUS
0
LAYER
2
90000_FRAME
70
0
62
7
6
CONTINUOUS
0
LAYER
2
91000_TIP
70
0
62
7
6
CONTINUOUS
0
ENDTAB
0
ENDSEC
0
SECTION
2
BLOCKS
0
BLOCK
8
10100_DIM_FRONT
6
CONTINUOUS
2
*D0
70
65
10
0.0000000000
20
0.0000000000
0
TEXT
8
10100_DIM_FRONT
6
CONTINUOUS
10
362.2541492527
20
296.6401074150
40
3.5000000000
1
160
72
5
11
369.7541491127
21
296.6401074150
0
LINE
8
10100_DIM_FRONT
6
CONTINUOUS
10
288.1779635361
20
405.0930335038
11
288.1779635361
21
293.7651074150
0
LINE
8
10100_DIM_FRONT
6
CONTINUOUS
10
448.1779635361
20
405.0930335038
11
448.1779635361
21
293.7651074150
0
LINE
8
10100_DIM_FRONT
6
CONTINUOUS
10
288.1779635361
20
295.7651074150
11
368.1779635361
21
295.7651074150
0
LINE
8
10100_DIM_FRONT
6
CONTINUOUS
10
448.1779635361
20
295.7651074150
11
368.1779635361
21
295.7651074150
0
SOLID
8
10100_DIM_FRONT
6
CONTINUOUS
10
291.6779635361
20
296.2651074150
11
288.1779635361
21
295.7651074150
12
291.6779635361
22
295.2651074150
13
291.6779635361
23
295.2651074150
0
SOLID
8
10100_DIM_FRONT
6
CONTINUOUS
10
444.6779635361
20
295.2651074150
11
448.1779635361
21
295.7651074150
12
444.6779635361
22
296.2651074150
13
444.6779635361
23
296.2651074150
0
ENDBLK
8
0
0
BLOCK
8
10100_DIM_FRONT
6
CONTINUOUS
2
*D1
70
65
10
0.0000000000
20
0.0000000000
0
TEXT
8
10100_DIM_FRONT
6
CONTINUOUS
10
466.9052677806
20
396.2159293302
40
3.5000000000
1
155
50
90.0000000000
72
5
11
466.9052677806
21
403.2159293302
0
LINE
8
10100_DIM_FRONT
6
CONTINUOUS
10
448.1779635361
20
474.9430335038
11
469.7802677806
21
474.9430335038
0
LINE
8
10100_DIM_FRONT
6
CONTINUOUS
10
448.1779635361
20
319.9430335038
11
469.7802677806
21
319.9430335038
0
LINE
8
10100_DIM_FRONT
6
CONTINUOUS
10
467.7802677806
20
474.9430335038
11
467.7802677806
21
397.4430335038
0
LINE
8
10100_DIM_FRONT
6
CONTINUOUS
10
467.7802677806
20
319.9430335038
11
467.7802677806
21
397.4430335038
0
SOLID
8
10100_DIM_FRONT
6
CONTINUOUS
10
468.2802677806
20
471.4430335038
11
467.7802677806
21
474.9430335038
12
467.2802677806
22
471.4430335038
13
467.2802677806
23
471.4430335038
0
SOLID
8
10100_DIM_FRONT
6
CONTINUOUS
10
467.2802677806
20
323.4430335038
11
467.7802677806
21
319.9430335038
12
468.2802677806
22
323.4430335038
13
468.2802677806
23
323.4430335038
0
ENDBLK
8
0
0
BLOCK
8
11100_DIM_LEFT
6
CONTINUOUS
2
*D2
70
65
10
0.0000000000
20
0.0000000000
0
TEXT
8
11100_DIM_LEFT
6
CONTINUOUS
10
559.2205617369
20
296.5964350929
40
3.5000000000
1
15.7
72
5
11
568.4705617369
21
296.5964350929
0
LINE
8
11100_DIM_LEFT
6
CONTINUOUS
10
571.3310784446
20
320.2430335038
11
571.3310784446
21
293.7214350929
0
LINE
8
11100_DIM_LEFT
6
CONTINUOUS
10
555.6310784446
20
324.1430335038
11
555.6310784446
21
293.7214350929
0
LINE
8
11100_DIM_LEFT
6
CONTINUOUS
10
571.3310784446
20
295.7214350929
11
563.4810784446
21
295.7214350929
0
LINE
8
11100_DIM_LEFT
6
CONTINUOUS
10
555.6310784446
20
295.7214350929
11
563.4810784446
21
295.7214350929
0
SOLID
8
11100_DIM_LEFT
6
CONTINUOUS
10
567.8310784446
20
295.2214350929
11
571.3310784446
21
295.7214350929
12
567.8310784446
22
296.2214350929
13
567.8310784446
23
296.2214350929
0
SOLID
8
11100_DIM_LEFT
6
CONTINUOUS
10
559.1310784446
20
296.2214350929
11
555.6310784446
21
295.7214350929
12
559.1310784446
22
295.2214350929
13
559.1310784446
23
295.2214350929
0
ENDBLK
8
0
0
ENDSEC
0
SECTION
2
ENTITIES
0
DIMENSION
8
10100_DIM_FRONT
6
CONTINUOUS
2
*D0
10
448.1779635361
20
295.7651074150
11
366.0041491827
21
298.3901074150
70
128
13
288.1779635361
23
405.0930335038
14
448.1779635361
24
405.0930335038
0
DIMENSION
8
10100_DIM_FRONT
6
CONTINUOUS
2
*D1
10
467.7802677806
20
319.9430335038
11
465.1552677806
21
399.7159293302
70
128
13
448.1779635361
23
474.9430335038
14
448.1779635361
24
319.9430335038
50
270.000000
0
DIMENSION
8
11100_DIM_LEFT
6
CONTINUOUS
2
*D2
10
555.6310784446
20
295.7214350929
11
563.8455617369
21
298.3464350929
70
128
13
571.3310784446
23
320.2430335038
14
555.6310784446
24
324.1430335038
50
180.000000
0
TEXT
8
90000_FRAME
62
7
6
CONTINUOUS
10
746.6600000000
20
11.9000000000
40
2.2000000000
1
Format / Size: DIN A1
72
5
11
779.7647619048
21
11.9000000000
0
TEXT
8
90000_FRAME
62
7
6
CONTINUOUS
10
789.1600000000
20
11.9000000000
40
2.2000000000
1
Massstab / Scale: 1:1
72
5
11
820.0647619048
21
11.9000000000
0
TEXT
8
90000_FRAME
62
7
6
CONTINUOUS
10
764.6250000000
20
20.2500000000
40
3.5000000000
1
6ES75901AB600AA0_001
72
5
11
818.3750000000
21
20.2500000000
0
TEXT
8
11300_LEFT_GERMAN_ENGLISH
6
CONTINUOUS
10
546.1879739477
20
495.2093672687
40
3.5000000000
1
Links / Left
72
5
11
574.6879739477
21
495.2093672687
0
TEXT
8
10300_FRONT_GERMAN_ENGLISH
6
CONTINUOUS
10
292.1769499232
20
495.1867635758
40
3.5000000000
1
Vorne / Front
72
5
11
324.7602832565
21
495.1867635758
0
TEXT
8
13300_TOP_GERMAN_ENGLISH
6
CONTINUOUS
10
290.7228643699
20
253.0815189549
40
3.5000000000
1
Oben / Top
72
5
11
317.1395310365
21
253.0815189549
0
TEXT
8
91000_TIP
62
7
6
CONTINUOUS
10
11.2756234532
20
15.1898618139
40
3.5000000000
1
Alle Bemassungswerte sind in Millimeter (mm) angegeben.
72
5
11
145.8589567865
21
15.1898618139
0
TEXT
8
91000_TIP
62
7
6
CONTINUOUS
10
11.2756234532
20
9.9398618139
40
3.5000000000
1
All dimensions are in millimeters (mm).
72
5
11
104.4422901199
21
9.9398618139
0
LINE
8
90000_FRAME
62
7
6
CONTINUOUS
10
0.0000000000
20
594.0000000000
11
0.0000000000
21
0.0000000000
0
LINE
8
90000_FRAME
62
7
6
CONTINUOUS
10
5.0000000000
20
589.0000000000
11
5.0000000000
21
5.0000000000
0
LINE
8
91000_TIP
62
7
6
CONTINUOUS
10
669.7690054113
20
20.5214774899
11
679.7690052071
21
23.0214774388
0
LINE
8
90000_FRAME
62
7
6
CONTINUOUS
10
0.0000000000
20
0.0000000000
11
841.0000000000
21
0.0000000000
0
LINE
8
90000_FRAME
62
7
6
CONTINUOUS
10
5.0000000000
20
5.0000000000
11
836.0000000000
21
5.0000000000
0
LINE
8
90000_FRAME
62
7
6
CONTINUOUS
10
696.0000000000
20
10.0000000000
11
831.0000000000
21
10.0000000000
0
LINE
8
90000_FRAME
62
7
6
CONTINUOUS
10
746.0000000000
20
16.0000000000
11
831.0000000000
21
16.0000000000
0
LINE
8
90000_FRAME
62
7
6
CONTINUOUS
10
719.5642263739
20
16.2683477777
11
720.4198148089
21
16.2683477777
0
LINE
8
90000_FRAME
62
7
6
CONTINUOUS
10
732.7545480800
20
16.3158804685
11
731.2335019733
21
16.3158804685
0
LINE
8
90000_FRAME
62
7
6
CONTINUOUS
10
723.1291781863
20
16.3158804685
11
721.7507301522
21
16.3158804685
0
LINE
8
90000_FRAME
62
7
6
CONTINUOUS
10
710.3904170431
20
16.3158804685
11
711.8163977681
21
16.3158804685
0
LINE
8
90000_FRAME
62
7
6
CONTINUOUS
10
712.9096496573
20
16.3158804685
11
716.4746014697
21
16.3158804685
0
LINE
8
90000_FRAME
62
7
6
CONTINUOUS
10
717.2826572139
20
16.3158804685
11
718.2333110305
21
16.3158804685
0
LINE
8
90000_FRAME
62
7
6
CONTINUOUS
10
724.2224300755
20
16.3158804685
11
727.7873818879
21
16.3158804685
0
LINE
8
90000_FRAME
62
7
6
CONTINUOUS
10
728.5716712867
20
16.3158804685
11
729.5223251033
21
16.3158804685
0
LINE
8
90000_FRAME
62
7
6
CONTINUOUS
10
727.7873818879
20
17.2190015943
11
725.6008781096
21
17.2190015943
0
LINE
8
90000_FRAME
62
7
6
CONTINUOUS
10
716.4746014697
20
17.2190015943
11
714.2880976914
21
17.2190015943
0
LINE
8
91000_TIP
62
7
6
CENTER
10
668.4894949393
20
18.0214775409
11
692.0914842034
21
18.0214775409
0
LINE
8
90000_FRAME
62
7
6
CONTINUOUS
10
727.4546530521
20
18.3360198289
11
725.6008781096
21
18.3360198289
0
LINE
8
90000_FRAME
62
7
6
CONTINUOUS
10
716.1418726339
20
18.3360198289
11
714.2880976914
21
18.3360198289
0
LINE
8
90000_FRAME
62
7
6
CONTINUOUS
10
727.4546530521
20
19.1203092276
11
725.6008781096
21
19.1203092276
0
LINE
8
90000_FRAME
62
7
6
CONTINUOUS
10
716.1418726339
20
19.1203092276
11
714.2880976914
21
19.1203092276
0
LINE
8
90000_FRAME
62
7
6
CONTINUOUS
10
727.7398491971
20
20.1897947714
11
725.6008781096
21
20.1897947714
0
LINE
8
90000_FRAME
62
7
6
CONTINUOUS
10
716.4270687789
20
20.1897947714
11
714.2880976914
21
20.1897947714
0
LINE
8
90000_FRAME
62
7
6
CONTINUOUS
10
732.7545480800
20
21.0691495518
11
731.8038942633
21
21.0691495518
0
LINE
8
90000_FRAME
62
7
6
CONTINUOUS
10
730.1164837387
20
21.0691495518
11
728.5716712867
21
21.0691495518
0
LINE
8
90000_FRAME
62
7
6
CONTINUOUS
10
727.7398491971
20
21.0691495518
11
724.2224300755
21
21.0691495518
0
LINE
8
90000_FRAME
62
7
6
CONTINUOUS
10
723.1291781863
20
21.0691495518
11
721.4180013163
21
21.0691495518
0
LINE
8
90000_FRAME
62
7
6
CONTINUOUS
10
718.9938340839
20
21.0691495518
11
717.2826572139
21
21.0691495518
0
LINE
8
90000_FRAME
62
7
6
CONTINUOUS
10
716.4270687789
20
21.0691495518
11
712.9096496573
21
21.0691495518
0
LINE
8
90000_FRAME
62
7
6
CONTINUOUS
10
710.3904170431
20
21.0691495518
11
711.8163977681
21
21.0691495518
0
LINE
8
90000_FRAME
62
7
6
CONTINUOUS
10
696.0000000000
20
28.0000000000
11
831.0000000000
21
28.0000000000
0
LINE
8
91000_TIP
62
7
6
CONTINUOUS
10
669.7690054113
20
15.5214775920
11
679.7690052071
21
13.0214776430
0
LINE
8
13000_TOP
6
CONTINUOUS
10
288.1779635361
20
208.0387748924
11
288.1779635361
21
223.7387748924
0
LINE
8
10000_FRONT
6
CONTINUOUS
10
288.1779635361
20
319.9430335038
11
288.1779635361
21
474.9430335038
0
LINE
8
11000_LEFT
6
CONTINUOUS
10
560.0536967063
20
455.0602069376
11
568.0311289812
21
458.7801446998
0
LINE
8
13000_TOP
6
CONTINUOUS
10
448.1779635361
20
208.0387748924
11
288.1779635361
21
208.0387748924
0
LINE
8
11000_LEFT
6
CONTINUOUS
10
568.1197693137
20
455.5113446087
11
563.0781094696
21
453.1603800136
0
LINE
8
11000_LEFT
6
CONTINUOUS
10
562.5343247973
20
452.9068090566
11
561.9905401251
21
452.6532380995
0
LINE
8
11000_LEFT
6
CONTINUOUS
10
561.4467554529
20
452.3996671425
11
560.9029707807
21
452.1460961854
0
LINE
8
11000_LEFT
6
CONTINUOUS
10
560.3591861085
20
451.8925252284
11
559.2084601828
21
451.3559329168
0
LINE
8
13000_TOP
6
CONTINUOUS
10
448.1779635361
20
212.9887748924
11
288.1779635361
21
212.9887748924
0
LINE
8
13000_TOP
6
CONTINUOUS
10
448.1779635361
20
220.7387748924
11
288.1779635361
21
220.7387748924
0
LINE
8
13000_TOP
6
CONTINUOUS
10
448.1779635361
20
223.7387748924
11
288.1779635361
21
223.7387748924
0
LINE
8
13000_TOP
6
CONTINUOUS
10
448.1779635361
20
223.7387748924
11
448.1779635361
21
208.0387748924
0
LINE
8
10000_FRONT
6
CONTINUOUS
10
448.1779635361
20
319.9430335038
11
448.1779635361
21
474.9430335038
0
LINE
8
11000_LEFT
6
CONTINUOUS
10
558.3310784446
20
404.7930335038
11
558.6310784446
21
405.0930335038
0
LINE
8
11000_LEFT
6
CONTINUOUS
10
571.0310784446
20
319.9430335038
11
570.5612765410
21
319.9430335038
0
LINE
8
10000_FRONT
6
CONTINUOUS
10
448.1779635361
20
319.9430335038
11
288.1779635361
21
319.9430335038
0
LINE
8
11000_LEFT
6
CONTINUOUS
10
556.1310784446
20
323.6430335038
11
559.5810784446
21
323.6430335038
0
LINE
8
11000_LEFT
6
CONTINUOUS
10
566.6810784446
20
323.6430335038
11
569.3396664326
21
323.6430335038
0
LINE
8
11000_LEFT
6
CONTINUOUS
10
567.4565786447
20
326.1430335038
11
566.5810784446
21
326.1430335038
0
LINE
8
11000_LEFT
6
CONTINUOUS
10
559.6810784446
20
326.1430335038
11
558.8055782444
21
326.1430335038
0
LINE
8
10000_FRONT
6
CONTINUOUS
10
288.1779635361
20
333.2460347064
11
448.1779635361
21
333.2460347064
0
LINE
8
10000_FRONT
6
CONTINUOUS
10
288.1779635361
20
333.3896135178
11
448.1779635361
21
333.3896135178
0
LINE
8
10000_FRONT
6
CONTINUOUS
10
288.1779635361
20
333.5331923293
11
448.1779635361
21
333.5331923293
0
LINE
8
10000_FRONT
6
CONTINUOUS
10
288.1779635361
20
333.6767711407
11
448.1779635361
21
333.6767711407
0
LINE
8
10000_FRONT
6
CONTINUOUS
10
288.1779635361
20
333.8203499522
11
448.1779635361
21
333.8203499522
0
LINE
8
10000_FRONT
6
CONTINUOUS
10
288.1779635361
20
333.9639287636
11
448.1779635361
21
333.9639287636
0
LINE
8
10000_FRONT
6
CONTINUOUS
10
288.1779635361
20
334.1075075751
11
448.1779635361
21
334.1075075751
0
LINE
8
10000_FRONT
6
CONTINUOUS
10
288.1779635361
20
334.2510863865
11
448.1779635361
21
334.2510863865
0
LINE
8
10000_FRONT
6
CONTINUOUS
10
288.1779635361
20
336.1112264372
11
448.1779635361
21
336.1112264372
0
LINE
8
10000_FRONT
6
CONTINUOUS
10
288.1779635361
20
336.6060793261
11
448.1779635361
21
336.6060793261
0
LINE
8
10000_FRONT
6
CONTINUOUS
10
448.1779635361
20
354.6430335038
11
288.1779635361
21
354.6430335038
0
LINE
8
10000_FRONT
6
CONTINUOUS
10
448.1779635361
20
354.9430335038
11
288.1779635361
21
354.9430335038
0
LINE
8
11000_LEFT
6
CONTINUOUS
10
570.5612765410
20
354.9430335038
11
571.0310784446
21
354.9430335038
0
LINE
8
11000_LEFT
6
CONTINUOUS
10
559.1502195163
20
330.5689346176
11
559.6817963768
21
330.5320926570
0
LINE
8
11000_LEFT
6
CONTINUOUS
10
560.2803605123
20
330.4906080139
11
560.8817963768
21
330.4489243401
0
LINE
8
11000_LEFT
6
CONTINUOUS
10
561.4803605123
20
330.4074396971
11
562.0817963768
21
330.3657560233
0
LINE
8
11000_LEFT
6
CONTINUOUS
10
562.6803605123
20
330.3242713803
11
563.2817963768
21
330.2825877065
0
LINE
8
11000_LEFT
6
CONTINUOUS
10
563.8803605123
20
330.2411030634
11
564.4817963768
21
330.1994193897
0
LINE
8
11000_LEFT
6
CONTINUOUS
10
565.0803605123
20
330.1579347466
11
565.6817963768
21
330.1162510728
0
LINE
8
11000_LEFT
6
CONTINUOUS
10
566.2803605123
20
330.0747664298
11
566.8817963768
21
330.0330827560
0
LINE
8
11000_LEFT
6
CONTINUOUS
10
567.4803605123
20
329.9915981129
11
567.9018207661
21
329.9623879963
0
LINE
8
11000_LEFT
6
CONTINUOUS
10
570.4616046368
20
332.4645968089
11
569.4243525744
21
332.6011536336
0
LINE
8
11000_LEFT
6
CONTINUOUS
10
568.4534270143
20
332.7289784085
11
568.3337632269
21
332.7447324450
0
LINE
8
11000_LEFT
6
CONTINUOUS
10
567.3628376668
20
332.8725572200
11
567.2431738794
21
332.8883112565
0
LINE
8
11000_LEFT
6
CONTINUOUS
10
566.2722483193
20
333.0161360314
11
566.1525845319
21
333.0318900679
0
LINE
8
11000_LEFT
6
CONTINUOUS
10
565.1816589718
20
333.1597148429
11
565.0619951844
21
333.1754688793
0
LINE
8
11000_LEFT
6
CONTINUOUS
10
564.0910696243
20
333.3032936543
11
563.9714058369
21
333.3190476908
0
LINE
8
11000_LEFT
6
CONTINUOUS
10
563.0004802767
20
333.4468724658
11
562.8808164894
21
333.4626265022
0
LINE
8
11000_LEFT
6
CONTINUOUS
10
561.9098909292
20
333.5904512772
11
561.7902271419
21
333.6062053137
0
LINE
8
11000_LEFT
6
CONTINUOUS
10
560.8193015817
20
333.7340300886
11
560.6996377944
21
333.7497841251
0
LINE
8
11000_LEFT
6
CONTINUOUS
10
561.3101117326
20
334.2493753588
11
561.5678462440
21
334.2154439666
0
LINE
8
11000_LEFT
6
CONTINUOUS
10
562.4007010801
20
334.1057965473
11
562.6584355915
21
334.0718651552
0
LINE
8
11000_LEFT
6
CONTINUOUS
10
563.4912904276
20
333.9622177359
11
563.7490249390
21
333.9282863437
0
LINE
8
11000_LEFT
6
CONTINUOUS
10
564.5818797751
20
333.8186389244
11
564.8396142865
21
333.7847075323
0
LINE
8
11000_LEFT
6
CONTINUOUS
10
565.6724691226
20
333.6750601130
11
565.9302036340
21
333.6411287209
0
LINE
8
11000_LEFT
6
CONTINUOUS
10
566.7630584701
20
333.5314813016
11
567.0207929815
21
333.4975499094
0
LINE
8
11000_LEFT
6
CONTINUOUS
10
567.8536478176
20
333.3879024901
11
568.1113823290
21
333.3539710980
0
LINE
8
11000_LEFT
6
CONTINUOUS
10
568.9442371651
20
333.2443236787
11
569.2019716766
21
333.2103922865
0
LINE
8
11000_LEFT
6
CONTINUOUS
10
570.1388449270
20
336.1129374649
11
569.8811104156
21
336.1468688571
0
LINE
8
11000_LEFT
6
CONTINUOUS
10
569.0482555795
20
336.2565162764
11
568.7905210680
21
336.2904476685
0
LINE
8
11000_LEFT
6
CONTINUOUS
10
567.9576662319
20
336.4000950878
11
567.6999317205
21
336.4340264800
0
LINE
8
11000_LEFT
6
CONTINUOUS
10
566.8670768844
20
336.5436738993
11
566.6093423730
21
336.5776052914
0
LINE
8
11000_LEFT
6
CONTINUOUS
10
565.7764875369
20
336.6872527107
11
565.5187530255
21
336.7211841028
0
LINE
8
11000_LEFT
6
CONTINUOUS
10
564.6858981894
20
336.8308315221
11
564.4281636780
21
336.8647629143
0
LINE
8
11000_LEFT
6
CONTINUOUS
10
563.5953088419
20
336.9744103336
11
563.3375743305
21
337.0083417257
0
LINE
8
11000_LEFT
6
CONTINUOUS
10
562.5047194944
20
337.1179891450
11
562.2469849830
21
337.1519205372
0
LINE
8
11000_LEFT
6
CONTINUOUS
10
560.9679799593
20
337.3203047430
11
561.4141301469
21
337.2615679565
0
LINE
8
11000_LEFT
6
CONTINUOUS
10
561.7866161658
20
337.7924908941
11
561.9062799532
21
337.7767368576
0
LINE
8
11000_LEFT
6
CONTINUOUS
10
562.8772055133
20
337.6489120827
11
562.9968693007
21
337.6331580462
0
LINE
8
11000_LEFT
6
CONTINUOUS
10
563.9677948608
20
337.5053332712
11
564.0874586482
21
337.4895792347
0
LINE
8
11000_LEFT
6
CONTINUOUS
10
565.0583842084
20
337.3617544598
11
565.1780479957
21
337.3460004233
0
LINE
8
11000_LEFT
6
CONTINUOUS
10
566.1489735559
20
337.2181756483
11
566.2686373432
21
337.2024216119
0
LINE
8
11000_LEFT
6
CONTINUOUS
10
567.2395629034
20
337.0745968369
11
567.3592266907
21
337.0588428004
0
LINE
8
11000_LEFT
6
CONTINUOUS
10
568.3301522509
20
336.9310180254
11
568.4498160383
21
336.9152639890
0
LINE
8
11000_LEFT
6
CONTINUOUS
10
569.4207415984
20
336.7874392140
11
569.5404053858
21
336.7716851775
0
LINE
8
11000_LEFT
6
CONTINUOUS
10
570.5113309459
20
336.6438604026
11
570.7658153485
21
336.6103568954
0
LINE
8
11000_LEFT
6
CONTINUOUS
10
557.6011398971
20
339.6888260525
11
556.1426946198
21
336.5481468300
0
LINE
8
11000_LEFT
6
CONTINUOUS
10
560.9210552843
20
333.7869997135
11
561.1066043275
21
334.1434361091
0
LINE
8
11000_LEFT
6
CONTINUOUS
10
562.0116446318
20
333.6434209020
11
562.1971936750
21
333.9998572977
0
LINE
8
11000_LEFT
6
CONTINUOUS
10
563.1022339793
20
333.4998420906
11
563.2877830225
21
333.8562784863
0
LINE
8
11000_LEFT
6
CONTINUOUS
10
564.1928233268
20
333.3562632791
11
564.3783723700
21
333.7126996748
0
LINE
8
11000_LEFT
6
CONTINUOUS
10
565.2834126743
20
333.2126844677
11
565.4689617175
21
333.5691208634
0
LINE
8
11000_LEFT
6
CONTINUOUS
10
566.3740020218
20
333.0691056562
11
566.5595510650
21
333.4255420519
0
LINE
8
11000_LEFT
6
CONTINUOUS
10
567.4645913693
20
332.9255268448
11
567.6501404125
21
333.2819632405
0
LINE
8
11000_LEFT
6
CONTINUOUS
10
568.5551807168
20
332.7819480334
11
568.7407297601
21
333.1383844291
0
LINE
8
10000_FRONT
6
CONTINUOUS
10
299.3766479743
20
401.3930335038
11
306.9792790978
21
401.3930335038
0
LINE
8
10000_FRONT
6
CONTINUOUS
10
429.3766479743
20
401.3930335038
11
436.9792790978
21
401.3930335038
0
LINE
8
10000_FRONT
6
CONTINUOUS
10
288.1779635361
20
404.4930335038
11
298.0867947115
21
404.4930335038
0
LINE
8
10000_FRONT
6
CONTINUOUS
10
308.2691323606
20
404.4930335038
11
428.0867947115
21
404.4930335038
0
LINE
8
10000_FRONT
6
CONTINUOUS
10
438.2691323606
20
404.4930335038
11
448.1779635361
21
404.4930335038
0
LINE
8
10000_FRONT
6
CONTINUOUS
10
288.1779635361
20
404.7930335038
11
298.0779635361
21
404.7930335038
0
LINE
8
10000_FRONT
6
CONTINUOUS
10
308.2779635361
20
404.7930335038
11
428.0779635361
21
404.7930335038
0
LINE
8
10000_FRONT
6
CONTINUOUS
10
438.2779635361
20
404.7930335038
11
448.1779635361
21
404.7930335038
0
LINE
8
10000_FRONT
6
CONTINUOUS
10
288.1779635361
20
405.0930335038
11
298.0867947115
21
405.0930335038
0
LINE
8
10000_FRONT
6
CONTINUOUS
10
308.2691323606
20
405.0930335038
11
428.0867947115
21
405.0930335038
0
LINE
8
10000_FRONT
6
CONTINUOUS
10
438.2691323606
20
405.0930335038
11
448.1779635361
21
405.0930335038
0
LINE
8
10000_FRONT
6
CONTINUOUS
10
436.9792790978
20
408.1930335038
11
429.3766479743
21
408.1930335038
0
LINE
8
10000_FRONT
6
CONTINUOUS
10
306.9792790978
20
408.1930335038
11
299.3766479743
21
408.1930335038
0
LINE
8
11000_LEFT
6
CONTINUOUS
10
555.6310784446
20
324.1430335038
11
555.6310784446
21
325.5430335038
0
LINE
8
11000_LEFT
6
CONTINUOUS
10
555.6310784446
20
326.1430335038
11
555.6310784446
21
326.7430335038
0
LINE
8
11000_LEFT
6
CONTINUOUS
10
555.6310784446
20
327.3430335038
11
555.6310784446
21
327.9430335038
0
LINE
8
11000_LEFT
6
CONTINUOUS
10
555.6310784446
20
328.5430335038
11
555.6310784446
21
329.1430335038
0
LINE
8
11000_LEFT
6
CONTINUOUS
10
555.6310784446
20
329.7430335038
11
555.6310784446
21
330.3430335038
0
LINE
8
11000_LEFT
6
CONTINUOUS
10
555.6310784446
20
330.9430335038
11
555.6310784446
21
334.2316782209
0
LINE
8
11000_LEFT
6
CONTINUOUS
10
555.6310784446
20
353.4037030260
11
555.6310784446
21
474.4430335038
0
LINE
8
11000_LEFT
6
CONTINUOUS
10
558.0810784446
20
326.8675333036
11
558.0810784446
21
329.5713277250
0
LINE
8
11000_LEFT
6
CONTINUOUS
10
558.6310784446
20
474.4430335038
11
558.6310784446
21
455.9665147246
0
LINE
8
11000_LEFT
6
CONTINUOUS
10
558.6310784446
20
353.4037030260
11
558.6310784446
21
404.4930335038
0
LINE
8
11000_LEFT
6
CONTINUOUS
10
558.6310784446
20
405.0930335038
11
558.6310784446
21
450.4496251298
0
LINE
8
11000_LEFT
6
CONTINUOUS
10
560.0810784446
20
324.1430335038
11
560.0810784446
21
325.7430335038
0
LINE
8
11000_LEFT
6
CONTINUOUS
10
566.1810784446
20
325.7430335038
11
566.1810784446
21
324.1430335038
0
LINE
8
11000_LEFT
6
CONTINUOUS
10
566.3810784446
20
461.0571905474
11
566.3810784446
21
461.9430335038
0
LINE
8
11000_LEFT
6
CONTINUOUS
10
568.1810784446
20
329.6631059286
11
568.1810784446
21
326.8675333036
0
LINE
8
11000_LEFT
6
CONTINUOUS
10
568.8310784446
20
450.8309380512
11
568.8310784446
21
455.0581907152
0
LINE
8
11000_LEFT
6
CONTINUOUS
10
560.6135459274
20
333.8619812305
11
560.6498248635
21
334.1375471085
0
LINE
8
11000_LEFT
6
CONTINUOUS
10
561.6385243576
20
337.4337516903
11
561.6744190605
21
337.7063990272
0
LINE
8
11000_LEFT
6
CONTINUOUS
10
561.7400299778
20
333.9910497559
11
561.7041352749
21
333.7184024190
0
LINE
8
11000_LEFT
6
CONTINUOUS
10
562.7650084080
20
337.5628202157
11
562.7291137051
21
337.2901728789
0
LINE
8
11000_LEFT
6
CONTINUOUS
10
562.8306193253
20
333.8474709445
11
562.7947246225
21
333.5748236076
0
LINE
8
11000_LEFT
6
CONTINUOUS
10
563.8555977555
20
337.4192414043
11
563.8197030526
21
337.1465940674
0
LINE
8
11000_LEFT
6
CONTINUOUS
10
563.9212086728
20
333.7038921330
11
563.8853139700
21
333.4312447961
0
LINE
8
11000_LEFT
6
CONTINUOUS
10
564.9461871030
20
337.2756625929
11
564.9102924001
21
337.0030152560
0
LINE
8
11000_LEFT
6
CONTINUOUS
10
565.0117980203
20
333.5603133216
11
564.9759033175
21
333.2876659847
0
LINE
8
11000_LEFT
6
CONTINUOUS
10
566.0367764505
20
337.1320837814
11
566.0008817476
21
336.8594364445
0
LINE
8
11000_LEFT
6
CONTINUOUS
10
566.1023873679
20
333.4167345101
11
566.0664926650
21
333.1440871733
0
LINE
8
11000_LEFT
6
CONTINUOUS
10
567.1273657980
20
336.9885049700
11
567.0914710952
21
336.7158576331
0
LINE
8
11000_LEFT
6
CONTINUOUS
10
567.1929767154
20
333.2731556987
11
567.1570820125
21
333.0005083618
0
LINE
8
11000_LEFT
6
CONTINUOUS
10
568.2179551455
20
336.8449261585
11
568.1820604427
21
336.5722788217
0
LINE
8
11000_LEFT
6
CONTINUOUS
10
568.2835660629
20
333.1295768873
11
568.2476713600
21
332.8569295504
0
LINE
8
11000_LEFT
6
CONTINUOUS
10
569.3085444930
20
336.7013473471
11
569.2726497902
21
336.4287000102
0
LINE
8
11000_LEFT
6
CONTINUOUS
10
569.3741554104
20
332.9859980758
11
569.3382607075
21
332.7133507389
0
LINE
8
11000_LEFT
6
CONTINUOUS
10
570.3991338405
20
336.5577685356
11
570.3632391377
21
336.2851211988
0
LINE
8
11000_LEFT
6
CONTINUOUS
10
570.2714987931
20
354.7206792173
11
569.3777771917
21
351.3852647932
0
LINE
8
90000_FRAME
62
7
6
CONTINUOUS
10
730.1164837387
20
21.0691495518
11
731.8038942633
21
18.1221227201
0
LINE
8
90000_FRAME
62
7
6
CONTINUOUS
10
731.2335019733
20
16.3158804685
11
729.5223251033
21
19.3579726818
0
LINE
8
11000_LEFT
6
CONTINUOUS
10
562.0778310200
20
337.3069215867
11
561.9908569347
21
337.6992363329
0
LINE
8
11000_LEFT
6
CONTINUOUS
10
563.1684203675
20
337.1633427752
11
563.0814462822
21
337.5556575214
0
LINE
8
11000_LEFT
6
CONTINUOUS
10
564.2590097150
20
337.0197639638
11
564.1720356297
21
337.4120787100
0
LINE
8
11000_LEFT
6
CONTINUOUS
10
565.3495990625
20
336.8761851523
11
565.2626249772
21
337.2684998985
0
LINE
8
11000_LEFT
6
CONTINUOUS
10
571.3310784446
20
457.7184033424
11
571.3310784446
21
452.0606644037
0
LINE
8
11000_LEFT
6
CONTINUOUS
10
571.3310784446
20
354.6430335038
11
571.3310784446
21
337.1060793261
0
LINE
8
11000_LEFT
6
CONTINUOUS
10
571.3310784446
20
331.4731519476
11
571.3310784446
21
320.2430335038
0
LINE
8
10000_FRONT
6
CONTINUOUS
10
448.1779635361
20
450.3309380512
11
288.1779635361
21
450.3309380512
0
LINE
8
10000_FRONT
6
CONTINUOUS
10
448.1779635361
20
450.3516918213
11
288.1779635361
21
450.3516918213
0
LINE
8
10000_FRONT
6
CONTINUOUS
10
288.1779635361
20
462.9430335038
11
448.1779635361
21
462.9430335038
0
LINE
8
10000_FRONT
6
CONTINUOUS
10
448.1779635361
20
474.9430335038
11
288.1779635361
21
474.9430335038
0
LINE
8
11000_LEFT
6
CONTINUOUS
10
556.1310784446
20
474.9430335038
11
558.1310784446
21
474.9430335038
0
LINE
8
11000_LEFT
6
CONTINUOUS
10
558.6310784446
20
404.4930335038
11
558.3310784446
21
404.7930335038
0
LINE
8
90000_FRAME
62
7
6
CONTINUOUS
10
719.5642263739
20
16.2683477777
11
718.2333110305
21
19.3579726818
0
LINE
8
90000_FRAME
62
7
6
CONTINUOUS
10
718.9938340839
20
21.0691495518
11
720.2296840455
21
18.1696554110
0
LINE
8
11000_LEFT
6
CONTINUOUS
10
570.2714987931
20
320.1653877902
11
569.3396664326
21
323.6430335038
0
LINE
8
11000_LEFT
6
CONTINUOUS
10
566.4401884100
20
336.7326063409
11
566.3532143247
21
337.1249210871
0
LINE
8
11000_LEFT
6
CONTINUOUS
10
567.5307777575
20
336.5890275295
11
567.4438036722
21
336.9813422757
0
LINE
8
11000_LEFT
6
CONTINUOUS
10
568.6213671051
20
336.4454487180
11
568.5343930197
21
336.8377634642
0
LINE
8
11000_LEFT
6
CONTINUOUS
10
569.7119564526
20
336.3018699066
11
569.6249823673
21
336.6941846528
0
LINE
8
91000_TIP
62
7
6
CONTINUOUS
10
669.7690054113
20
20.5214774899
11
669.7690054113
21
15.5214775920
0
LINE
8
91000_TIP
62
7
6
CONTINUOUS
10
679.7690052071
20
23.0214774388
11
679.7690052071
21
13.0214776430
0
LINE
8
91000_TIP
62
7
6
CENTER
10
686.2690050743
20
12.2999963345
11
686.2690050743
21
23.5833823345
0
LINE
8
90000_FRAME
62
7
6
CONTINUOUS
10
696.0000000000
20
10.0000000000
11
696.0000000000
21
28.0000000000
0
LINE
8
90000_FRAME
62
7
6
CONTINUOUS
10
705.9698767957
20
16.4109458502
11
705.9698767957
21
17.3615996668
0
LINE
8
90000_FRAME
62
7
6
CONTINUOUS
10
709.2971651540
20
20.0709630443
11
709.2971651540
21
21.0216168609
0
LINE
8
90000_FRAME
62
7
6
CONTINUOUS
10
710.3904170431
20
21.0691495518
11
710.3904170431
21
16.3158804685
0
LINE
8
90000_FRAME
62
7
6
CONTINUOUS
10
711.8163977681
20
21.0691495518
11
711.8163977681
21
16.3158804685
0
LINE
8
90000_FRAME
62
7
6
CONTINUOUS
10
712.9096496573
20
21.0691495518
11
712.9096496573
21
16.3158804685
0
LINE
8
90000_FRAME
62
7
6
CONTINUOUS
10
714.2880976914
20
20.1897947714
11
714.2880976914
21
19.1203092276
0
LINE
8
90000_FRAME
62
7
6
CONTINUOUS
10
714.2880976914
20
18.3360198289
11
714.2880976914
21
17.2190015943
0
LINE
8
90000_FRAME
62
7
6
CONTINUOUS
10
716.1418726339
20
19.1203092276
11
716.1418726339
21
18.3360198289
0
LINE
8
90000_FRAME
62
7
6
CONTINUOUS
10
716.4270687789
20
21.0691495518
11
716.4270687789
21
20.1897947714
0
LINE
8
90000_FRAME
62
7
6
CONTINUOUS
10
716.4746014697
20
17.2190015943
11
716.4746014697
21
16.3158804685
0
LINE
8
90000_FRAME
62
7
6
CONTINUOUS
10
717.2826572139
20
16.3158804685
11
717.2826572139
21
21.0691495518
0
LINE
8
90000_FRAME
62
7
6
CONTINUOUS
10
836.0000000000
20
589.0000000000
11
5.0000000000
21
589.0000000000
0
LINE
8
90000_FRAME
62
7
6
CONTINUOUS
10
841.0000000000
20
594.0000000000
11
0.0000000000
21
594.0000000000
0
LINE
8
90000_FRAME
62
7
6
CONTINUOUS
10
718.2333110305
20
16.3158804685
11
718.2333110305
21
19.3579726818
0
LINE
8
90000_FRAME
62
7
6
CONTINUOUS
10
721.7507301522
20
19.4055053726
11
721.7507301522
21
16.3158804685
0
LINE
8
90000_FRAME
62
7
6
CONTINUOUS
10
723.1291781863
20
21.0691495518
11
723.1291781863
21
16.3158804685
0
LINE
8
90000_FRAME
62
7
6
CONTINUOUS
10
724.2224300755
20
21.0691495518
11
724.2224300755
21
16.3158804685
0
LINE
8
90000_FRAME
62
7
6
CONTINUOUS
10
725.6008781096
20
20.1897947714
11
725.6008781096
21
19.1203092276
0
LINE
8
90000_FRAME
62
7
6
CONTINUOUS
10
725.6008781096
20
18.3360198289
11
725.6008781096
21
17.2190015943
0
LINE
8
90000_FRAME
62
7
6
CONTINUOUS
10
727.4546530521
20
19.1203092276
11
727.4546530521
21
18.3360198289
0
LINE
8
90000_FRAME
62
7
6
CONTINUOUS
10
727.7398491971
20
21.0691495518
11
727.7398491971
21
20.1897947714
0
LINE
8
90000_FRAME
62
7
6
CONTINUOUS
10
727.7873818879
20
17.2190015943
11
727.7873818879
21
16.3158804685
0
LINE
8
90000_FRAME
62
7
6
CONTINUOUS
10
728.5716712867
20
16.3158804685
11
728.5716712867
21
21.0691495518
0
LINE
8
90000_FRAME
62
7
6
CONTINUOUS
10
729.5223251033
20
16.3158804685
11
729.5223251033
21
19.3579726818
0
LINE
8
90000_FRAME
62
7
6
CONTINUOUS
10
731.8038942633
20
21.0691495518
11
731.8038942633
21
18.1221227201
0
LINE
8
90000_FRAME
62
7
6
CONTINUOUS
10
732.7545480800
20
21.0691495518
11
732.7545480800
21
16.3158804685
0
LINE
8
90000_FRAME
62
7
6
CONTINUOUS
10
733.5626038241
20
16.4109458502
11
733.5626038241
21
17.3615996668
0
LINE
8
90000_FRAME
62
7
6
CONTINUOUS
10
736.8898921824
20
20.0709630443
11
736.8898921824
21
21.0216168609
0
LINE
8
90000_FRAME
62
7
6
CONTINUOUS
10
746.0000000000
20
10.0000000000
11
746.0000000000
21
28.0000000000
0
LINE
8
90000_FRAME
62
7
6
CONTINUOUS
10
788.5000000000
20
10.0000000000
11
788.5000000000
21
16.0000000000
0
LINE
8
90000_FRAME
62
7
6
CONTINUOUS
10
721.4180013163
20
21.0691495518
11
720.2296840455
21
18.1696554110
0
LINE
8
90000_FRAME
62
7
6
CONTINUOUS
10
831.0000000000
20
10.0000000000
11
831.0000000000
21
28.0000000000
0
LINE
8
90000_FRAME
62
7
6
CONTINUOUS
10
836.0000000000
20
5.0000000000
11
836.0000000000
21
589.0000000000
0
LINE
8
90000_FRAME
62
7
6
CONTINUOUS
10
841.0000000000
20
0.0000000000
11
841.0000000000
21
594.0000000000
0
LINE
8
90000_FRAME
62
7
6
CONTINUOUS
10
721.7507301522
20
19.4055053726
11
720.4198148089
21
16.2683477777
0
LINE
8
90000_FRAME
62
7
6
CONTINUOUS
10
706.1617053850
20
20.4883440109
11
706.4357712096
21
20.7624170885
0
ARC
8
10000_FRONT
6
CONTINUOUS
10
433.1779635361
20
404.7930335038
40
5.1000000000
50
318.1896851042
51
41.8103148958
0
ARC
8
10000_FRONT
6
CONTINUOUS
10
433.1779635361
20
404.7930335038
40
5.1000000000
50
138.1896851042
51
221.8103148958
0
ARC
8
10000_FRONT
6
CONTINUOUS
10
303.1779635361
20
404.7930335038
40
5.1000000000
50
318.1896851042
51
41.8103148958
0
ARC
8
10000_FRONT
6
CONTINUOUS
10
303.1779635361
20
404.7930335038
40
5.1000000000
50
138.1896851042
51
221.8103148958
0
ARC
8
11000_LEFT
6
CONTINUOUS
10
561.1310784446
20
334.2316782209
40
5.5000000000
50
155.0911374351
51
180.0000000000
0
ARC
8
11000_LEFT
6
CONTINUOUS
10
561.1310784446
20
353.4037030260
40
5.5000000000
50
180.0000000000
51
224.5347141465
0
ARC
8
11000_LEFT
6
CONTINUOUS
10
561.1310784446
20
353.4037030260
40
2.5000000000
50
180.0000000000
51
290.7037062570
0
ARC
8
11000_LEFT
6
CONTINUOUS
10
555.4284732121
20
347.7929728095
40
2.5000000000
50
338.3657220361
51
44.5347141465
0
ARC
8
11000_LEFT
6
CONTINUOUS
10
555.3336927040
20
340.7417663294
40
2.5000000000
50
335.0911374351
51
20.0940603909
0
ARC
8
11000_LEFT
6
CONTINUOUS
10
560.7721906709
20
335.8331374509
40
1.5000000000
50
82.5000000000
51
259.1277133166
0
ARC
8
11000_LEFT
6
CONTINUOUS
10
559.0810784446
20
329.5713277250
40
1.0000000000
50
86.0353452771
51
180.0000000000
0
ARC
8
11000_LEFT
6
CONTINUOUS
10
559.5810784446
20
324.1430335038
40
0.5000000000
50
270.0000000000
51
360.0000000000
0
ARC
8
11000_LEFT
6
CONTINUOUS
10
556.1310784446
20
324.1430335038
40
0.5000000000
50
180.0000000000
51
270.0000000000
0
ARC
8
11000_LEFT
6
CONTINUOUS
10
557.6810784446
20
326.8675333036
40
0.4000000000
50
308.6821874535
51
360.0000000000
0
ARC
8
11000_LEFT
6
CONTINUOUS
10
558.1810784446
20
326.2430335038
40
0.4000000000
50
128.6821874535
51
321.3178125465
0
ARC
8
11000_LEFT
6
CONTINUOUS
10
558.8055782444
20
325.7430335038
40
0.4000000000
50
90.0000000000
51
141.3178125465
0
ARC
8
11000_LEFT
6
CONTINUOUS
10
559.6810784446
20
325.7430335038
40
0.4000000000
50
0.0000000000
51
90.0000000000
0
ARC
8
11000_LEFT
6
CONTINUOUS
10
555.6310784446
20
325.8430335038
40
0.3000000000
50
270.0000000000
51
90.0000000000
0
ARC
8
11000_LEFT
6
CONTINUOUS
10
555.6310784446
20
327.0430335038
40
0.3000000000
50
270.0000000000
51
90.0000000000
0
ARC
8
11000_LEFT
6
CONTINUOUS
10
555.6310784446
20
328.2430335038
40
0.3000000000
50
270.0000000000
51
90.0000000000
0
ARC
8
11000_LEFT
6
CONTINUOUS
10
555.6310784446
20
329.4430335038
40
0.3000000000
50
270.0000000000
51
90.0000000000
0
ARC
8
11000_LEFT
6
CONTINUOUS
10
555.6310784446
20
330.6430335038
40
0.3000000000
50
270.0000000000
51
90.0000000000
0
ARC
8
11000_LEFT
6
CONTINUOUS
10
562.3810784446
20
330.3450137018
40
0.3000000000
50
356.0353452771
51
176.0353452771
0
ARC
8
11000_LEFT
6
CONTINUOUS
10
561.1810784446
20
330.4281820186
40
0.3000000000
50
356.0353452771
51
176.0353452771
0
ARC
8
11000_LEFT
6
CONTINUOUS
10
559.9810784446
20
330.5113503355
40
0.3000000000
50
356.0353452771
51
176.0353452771
0
ARC
8
11000_LEFT
6
CONTINUOUS
10
562.5308247328
20
337.3162781173
40
0.2000000000
50
262.5000000000
51
352.5000000000
0
ARC
8
11000_LEFT
6
CONTINUOUS
10
562.2730902214
20
337.3502095094
40
0.2000000000
50
192.5000000000
51
262.5000000000
0
ARC
8
11000_LEFT
6
CONTINUOUS
10
561.4402353853
20
337.4598569287
40
0.2000000000
50
262.5000000001
51
352.5000000001
0
ARC
8
11000_LEFT
6
CONTINUOUS
10
560.4515358913
20
334.1636523470
40
0.2000000000
50
352.5000000000
51
79.1277133166
0
ARC
8
11000_LEFT
6
CONTINUOUS
10
561.2840064941
20
334.0510863865
40
0.2000000000
50
82.5000000000
51
152.5000000000
0
ARC
8
11000_LEFT
6
CONTINUOUS
10
561.5417410055
20
334.0171549944
40
0.2000000000
50
352.5000000000
51
82.5000000000
0
ARC
8
11000_LEFT
6
CONTINUOUS
10
562.3745958416
20
333.9075075751
40
0.2000000000
50
82.5000000000
51
152.5000000000
0
ARC
8
11000_LEFT
6
CONTINUOUS
10
562.6323303530
20
333.8735761829
40
0.2000000000
50
352.5000000000
51
82.5000000000
0
ARC
8
11000_LEFT
6
CONTINUOUS
10
562.9838166815
20
337.5340135600
40
0.1000000000
50
12.5000000000
51
82.5000000000
0
ARC
8
11000_LEFT
6
CONTINUOUS
10
562.8641528941
20
337.5497675965
40
0.1000000000
50
82.5000000001
51
172.5000000001
0
ARC
8
11000_LEFT
6
CONTINUOUS
10
561.8932273340
20
337.6775923715
40
0.1000000000
50
12.5000000000
51
82.5000000000
0
ARC
8
11000_LEFT
6
CONTINUOUS
10
561.7735635466
20
337.6933464080
40
0.1000000000
50
82.5000000000
51
172.5000000000
0
ARC
8
11000_LEFT
6
CONTINUOUS
10
560.7126904136
20
333.8489286113
40
0.1000000000
50
172.5000000000
51
262.5000000000
0
ARC
8
11000_LEFT
6
CONTINUOUS
10
560.8323542009
20
333.8331745748
40
0.1000000000
50
262.5000000000
51
332.5000000000
0
ARC
8
11000_LEFT
6
CONTINUOUS
10
561.8032797611
20
333.7053497998
40
0.1000000000
50
172.5000000000
51
262.5000000000
0
ARC
8
11000_LEFT
6
CONTINUOUS
10
561.9229435485
20
333.6895957633
40
0.1000000000
50
262.5000000000
51
332.5000000000
0
ARC
8
11000_LEFT
6
CONTINUOUS
10
562.8938691086
20
333.5617709884
40
0.1000000000
50
172.5000000000
51
262.5000000000
0
ARC
8
11000_LEFT
6
CONTINUOUS
10
563.0135328960
20
333.5460169519
40
0.1000000000
50
262.5000000001
51
332.5000000001
0
ARC
8
11000_LEFT
6
CONTINUOUS
10
559.6310784446
20
450.4496251298
40
1.0000000000
50
115.0000000000
51
180.0000000000
0
ARC
8
11000_LEFT
6
CONTINUOUS
10
559.6310784446
20
455.9665147246
40
1.0000000000
50
180.0000000000
51
295.0000000000
0
ARC
8
11000_LEFT
6
CONTINUOUS
10
556.1310784446
20
474.4430335038
40
0.5000000000
50
90.0000000000
51
180.0000000000
0
ARC
8
11000_LEFT
6
CONTINUOUS
10
558.1310784446
20
474.4430335038
40
0.5000000000
50
0.0000000000
51
90.0000000000
0
ARC
8
11000_LEFT
6
CONTINUOUS
10
562.8062171335
20
453.0335945351
40
0.3000000000
50
205.0000000000
51
25.0000000000
0
ARC
8
11000_LEFT
6
CONTINUOUS
10
560.6310784446
20
452.0193107069
40
0.3000000000
50
205.0000000000
51
25.0000000000
0
ARC
8
11000_LEFT
6
CONTINUOUS
10
561.7186477890
20
452.5264526210
40
0.3000000000
50
205.0000000000
51
25.0000000000
0
ARC
8
11000_LEFT
6
CONTINUOUS
10
566.6810784446
20
324.1430335038
40
0.5000000000
50
180.0000000000
51
270.0000000000
0
ARC
8
11000_LEFT
6
CONTINUOUS
10
566.5810784446
20
325.7430335038
40
0.4000000000
50
90.0000000000
51
180.0000000000
0
ARC
8
11000_LEFT
6
CONTINUOUS
10
565.9810784446
20
330.0955087513
40
0.3000000000
50
356.0353452771
51
176.0353452771
0
ARC
8
11000_LEFT
6
CONTINUOUS
10
564.7810784446
20
330.1786770681
40
0.3000000000
50
356.0353452771
51
176.0353452771
0
ARC
8
11000_LEFT
6
CONTINUOUS
10
563.5810784446
20
330.2618453850
40
0.3000000000
50
356.0353452771
51
176.0353452771
0
ARC
8
11000_LEFT
6
CONTINUOUS
10
567.1810784446
20
330.0123404345
40
0.3000000000
50
356.0353452771
51
176.0353452771
0
ARC
8
11000_LEFT
6
CONTINUOUS
10
566.8931821229
20
336.7419628715
40
0.2000000000
50
262.5000000000
51
352.5000000000
0
ARC
8
11000_LEFT
6
CONTINUOUS
10
566.6354476115
20
336.7758942637
40
0.2000000000
50
192.5000000000
51
262.5000000000
0
ARC
8
11000_LEFT
6
CONTINUOUS
10
565.8025927754
20
336.8855416830
40
0.2000000000
50
262.5000000000
51
352.5000000000
0
ARC
8
11000_LEFT
6
CONTINUOUS
10
565.5448582640
20
336.9194730751
40
0.2000000000
50
192.5000000000
51
262.5000000000
0
ARC
8
11000_LEFT
6
CONTINUOUS
10
564.7120034279
20
337.0291204944
40
0.2000000000
50
262.5000000000
51
352.5000000000
0
ARC
8
11000_LEFT
6
CONTINUOUS
10
564.4542689164
20
337.0630518866
40
0.2000000000
50
192.5000000000
51
262.5000000000
0
ARC
8
11000_LEFT
6
CONTINUOUS
10
563.6214140803
20
337.1726993059
40
0.2000000000
50
262.5000000001
51
352.5000000001
0
ARC
8
11000_LEFT
6
CONTINUOUS
10
563.3636795689
20
337.2066306980
40
0.2000000000
50
192.5000000000
51
262.5000000000
0
ARC
8
11000_LEFT
6
CONTINUOUS
10
563.4651851891
20
333.7639287636
40
0.2000000000
50
82.5000000000
51
152.5000000000
0
ARC
8
11000_LEFT
6
CONTINUOUS
10
563.7229197006
20
333.7299973715
40
0.2000000000
50
352.5000000000
51
82.5000000000
0
ARC
8
11000_LEFT
6
CONTINUOUS
10
564.5557745366
20
333.6203499522
40
0.2000000000
50
82.5000000001
51
152.5000000001
0
ARC
8
11000_LEFT
6
CONTINUOUS
10
564.8135090481
20
333.5864185600
40
0.2000000000
50
352.5000000000
51
82.5000000000
0
ARC
8
11000_LEFT
6
CONTINUOUS
10
565.6463638842
20
333.4767711407
40
0.2000000000
50
82.5000000001
51
152.5000000001
0
ARC
8
11000_LEFT
6
CONTINUOUS
10
565.9040983956
20
333.4428397486
40
0.2000000000
50
352.5000000000
51
82.5000000000
0
ARC
8
11000_LEFT
6
CONTINUOUS
10
566.7369532317
20
333.3331923293
40
0.2000000000
50
82.5000000000
51
152.5000000000
0
ARC
8
11000_LEFT
6
CONTINUOUS
10
566.9946877431
20
333.2992609371
40
0.2000000000
50
352.5000000000
51
82.5000000000
0
ARC
8
11000_LEFT
6
CONTINUOUS
10
566.2555847240
20
337.1032771257
40
0.1000000000
50
12.5000000000
51
82.5000000000
0
ARC
8
11000_LEFT
6
CONTINUOUS
10
566.1359209366
20
337.1190311622
40
0.1000000000
50
82.5000000000
51
172.5000000000
0
ARC
8
11000_LEFT
6
CONTINUOUS
10
565.1649953765
20
337.2468559372
40
0.1000000000
50
12.5000000000
51
82.5000000000
0
ARC
8
11000_LEFT
6
CONTINUOUS
10
565.0453315891
20
337.2626099736
40
0.1000000000
50
82.5000000000
51
172.5000000000
0
ARC
8
11000_LEFT
6
CONTINUOUS
10
564.0744060290
20
337.3904347486
40
0.1000000000
50
12.5000000000
51
82.5000000000
0
ARC
8
11000_LEFT
6
CONTINUOUS
10
563.9547422416
20
337.4061887851
40
0.1000000000
50
82.5000000000
51
172.5000000000
0
ARC
8
11000_LEFT
6
CONTINUOUS
10
563.9844584561
20
333.4181921769
40
0.1000000000
50
172.5000000000
51
262.5000000000
0
ARC
8
11000_LEFT
6
CONTINUOUS
10
564.1041222435
20
333.4024381404
40
0.1000000000
50
262.5000000000
51
332.5000000000
0
ARC
8
11000_LEFT
6
CONTINUOUS
10
565.0750478036
20
333.2746133655
40
0.1000000000
50
172.5000000000
51
262.5000000000
0
ARC
8
11000_LEFT
6
CONTINUOUS
10
565.1947115910
20
333.2588593290
40
0.1000000000
50
262.5000000000
51
332.5000000000
0
ARC
8
11000_LEFT
6
CONTINUOUS
10
566.1656371511
20
333.1310345540
40
0.1000000000
50
172.5000000000
51
262.5000000000
0
ARC
8
11000_LEFT
6
CONTINUOUS
10
566.2853009385
20
333.1152805176
40
0.1000000000
50
262.4999999999
51
332.5000000000
0
ARC
8
11000_LEFT
6
CONTINUOUS
10
564.6310784446
20
344.1430335038
40
7.4000000000
50
63.2504123493
51
110.7037062570
0
ARC
8
11000_LEFT
6
CONTINUOUS
10
564.6310784446
20
344.1430335038
40
7.4000000000
50
158.3657220361
51
200.0940603909
0
CIRCLE
8
11000_LEFT
6
CONTINUOUS
10
564.6310784446
20
344.1430335038
40
4.4000000000
0
ARC
8
11000_LEFT
6
CONTINUOUS
10
570.3310784446
20
331.4731519476
40
1.0000000000
50
0.0000000000
51
82.5000000000
0
ARC
8
11000_LEFT
6
CONTINUOUS
10
570.8310784446
20
337.1060793261
40
0.5000000000
50
262.5000000000
51
360.0000000000
0
ARC
8
11000_LEFT
6
CONTINUOUS
10
567.4565786447
20
325.7430335038
40
0.4000000000
50
38.6821874535
51
90.0000000000
0
ARC
8
11000_LEFT
6
CONTINUOUS
10
568.0810784446
20
326.2430335038
40
0.4000000000
50
218.6821874535
51
51.3178125465
0
ARC
8
11000_LEFT
6
CONTINUOUS
10
568.5810784446
20
326.8675333036
40
0.4000000000
50
180.0000000000
51
231.3178125465
0
ARC
8
11000_LEFT
6
CONTINUOUS
10
571.0310784446
20
320.2430335038
40
0.3000000000
50
270.0000000000
51
360.0000000000
0
ARC
8
11000_LEFT
6
CONTINUOUS
10
570.5612765410
20
320.2430335038
40
0.3000000000
50
195.0000000000
51
270.0000000000
0
ARC
8
11000_LEFT
6
CONTINUOUS
10
567.8810784446
20
329.6631059286
40
0.3000000000
50
0.0000000000
51
86.0353452771
0
ARC
8
11000_LEFT
6
CONTINUOUS
10
570.1649501654
20
336.3112264372
40
0.2000000000
50
262.5000000001
51
352.5000000001
0
ARC
8
11000_LEFT
6
CONTINUOUS
10
569.9072156540
20
336.3451578294
40
0.2000000000
50
192.5000000000
51
262.5000000000
0
ARC
8
11000_LEFT
6
CONTINUOUS
10
569.0743608179
20
336.4548052487
40
0.2000000000
50
262.5000000001
51
352.5000000001
0
ARC
8
11000_LEFT
6
CONTINUOUS
10
568.8166263065
20
336.4887366408
40
0.2000000000
50
192.5000000000
51
262.5000000000
0
ARC
8
11000_LEFT
6
CONTINUOUS
10
567.9837714704
20
336.5983840601
40
0.2000000000
50
262.5000000000
51
352.5000000000
0
ARC
8
11000_LEFT
6
CONTINUOUS
10
567.7260369590
20
336.6323154522
40
0.2000000000
50
192.5000000000
51
262.5000000000
0
ARC
8
11000_LEFT
6
CONTINUOUS
10
567.8275425792
20
333.1896135178
40
0.2000000000
50
82.5000000000
51
152.5000000000
0
ARC
8
11000_LEFT
6
CONTINUOUS
10
568.0852770906
20
333.1556821257
40
0.2000000000
50
352.5000000000
51
82.5000000000
0
ARC
8
11000_LEFT
6
CONTINUOUS
10
568.9181319267
20
333.0460347064
40
0.2000000000
50
82.5000000000
51
152.5000000000
0
ARC
8
11000_LEFT
6
CONTINUOUS
10
569.1758664381
20
333.0121033143
40
0.2000000000
50
352.5000000000
51
82.5000000000
0
ARC
8
11000_LEFT
6
CONTINUOUS
10
570.4982783267
20
336.5447159164
40
0.1000000000
50
82.5000000000
51
172.5000000000
0
ARC
8
11000_LEFT
6
CONTINUOUS
10
569.5273527665
20
336.6725406914
40
0.1000000000
50
12.5000000000
51
82.5000000000
0
ARC
8
11000_LEFT
6
CONTINUOUS
10
569.4076889792
20
336.6882947279
40
0.1000000000
50
82.5000000000
51
172.5000000000
0
ARC
8
11000_LEFT
6
CONTINUOUS
10
568.4367634190
20
336.8161195028
40
0.1000000000
50
12.5000000000
51
82.5000000000
0
ARC
8
11000_LEFT
6
CONTINUOUS
10
568.3170996317
20
336.8318735393
40
0.1000000000
50
82.5000000001
51
172.5000000001
0
ARC
8
11000_LEFT
6
CONTINUOUS
10
567.3461740715
20
336.9596983143
40
0.1000000000
50
12.5000000000
51
82.5000000000
0
ARC
8
11000_LEFT
6
CONTINUOUS
10
567.2265102842
20
336.9754523507
40
0.1000000000
50
82.5000000000
51
172.5000000000
0
ARC
8
11000_LEFT
6
CONTINUOUS
10
567.2562264986
20
332.9874557426
40
0.1000000000
50
172.5000000000
51
262.5000000000
0
ARC
8
11000_LEFT
6
CONTINUOUS
10
567.3758902860
20
332.9717017061
40
0.1000000000
50
262.5000000000
51
332.5000000000
0
ARC
8
11000_LEFT
6
CONTINUOUS
10
568.3468158462
20
332.8438769312
40
0.1000000000
50
172.5000000000
51
262.5000000000
0
ARC
8
11000_LEFT
6
CONTINUOUS
10
568.4664796335
20
332.8281228947
40
0.1000000000
50
262.5000000000
51
332.5000000000
0
ARC
8
11000_LEFT
6
CONTINUOUS
10
569.4374051937
20
332.7002981197
40
0.1000000000
50
172.5000000000
51
262.5000000000
0
ARC
8
11000_LEFT
6
CONTINUOUS
10
568.4118513654
20
351.6440838383
40
1.0000000000
50
243.2504123493
51
345.0000000000
0
ARC
8
11000_LEFT
6
CONTINUOUS
10
570.5612765410
20
354.6430335038
40
0.3000000000
50
90.0000000000
51
165.0000000000
0
ARC
8
11000_LEFT
6
CONTINUOUS
10
571.0310784446
20
354.6430335038
40
0.3000000000
50
0.0000000000
51
90.0000000000
0
ARC
8
11000_LEFT
6
CONTINUOUS
10
566.3230848343
20
460.9430335038
40
11.0500000000
50
286.5658948327
51
291.5509945218
0
ARC
8
11000_LEFT
6
CONTINUOUS
10
565.8310784446
20
457.7184033424
40
5.5000000000
50
0.0000000000
51
69.8521137128
0
ARC
8
11000_LEFT
6
CONTINUOUS
10
565.8310784446
20
457.7184033424
40
3.0000000000
50
37.2978176103
51
72.5423968763
0
ARC
8
11000_LEFT
6
CONTINUOUS
10
569.8310784446
20
452.0606644037
40
1.5000000000
50
291.5509945219
51
360.0000000000
0
ARC
8
11000_LEFT
6
CONTINUOUS
10
567.3810784446
20
461.9430335038
40
1.0000000000
50
69.8521137128
51
180.0000000000
0
ARC
8
11000_LEFT
6
CONTINUOUS
10
566.8810784446
20
461.0571905474
40
0.5000000000
50
180.0000000000
51
252.5423968763
0
ARC
8
11000_LEFT
6
CONTINUOUS
10
569.3310784446
20
450.8309380512
40
0.5000000000
50
180.0000000000
51
286.5658948327
0
ARC
8
11000_LEFT
6
CONTINUOUS
10
568.3310784446
20
455.0581907152
40
0.5000000000
50
0.0000000000
51
115.0000000000
0
ARC
8
11000_LEFT
6
CONTINUOUS
10
567.8198198503
20
459.2332985933
40
0.5000000000
50
295.0000000000
51
37.2978176103
0
ARC
8
90000_FRAME
62
7
6
CONTINUOUS
10
735.2672449491
20
18.2730390135
40
1.1116193606
50
277.7099956934
51
295.6884927746
0
ARC
8
90000_FRAME
62
7
6
CONTINUOUS
10
735.5515549319
20
17.5482132499
40
0.3401689265
50
305.5032212550
51
72.4652898523
0
ARC
8
90000_FRAME
62
7
6
CONTINUOUS
10
734.9855611237
20
20.9499201595
40
4.7567946411
50
252.5939200548
51
280.9816604256
0
ARC
8
90000_FRAME
62
7
6
CONTINUOUS
10
735.4403964868
20
18.3319064230
40
2.1007265953
50
282.4058358520
51
311.8644433928
0
ARC
8
90000_FRAME
62
7
6
CONTINUOUS
10
735.1668321397
20
19.9402481445
40
0.3029626476
50
154.4400348282
51
221.8201698801
0
ARC
8
90000_FRAME
62
7
6
CONTINUOUS
10
735.2460532911
20
19.8610269931
40
0.4103089737
50
102.8287828681
51
149.2259639003
0
ARC
8
90000_FRAME
62
7
6
CONTINUOUS
10
735.6630801268
20
18.1186916633
40
2.2018365570
50
84.0400061857
51
103.3427657871
0
ARC
8
90000_FRAME
62
7
6
CONTINUOUS
10
735.3221163020
20
15.7013277394
40
4.6423737365
50
70.2625858546
51
82.9524186380
0
ARC
8
90000_FRAME
62
7
6
CONTINUOUS
10
734.8080980999
20
20.3729506290
40
3.2587559909
50
247.5300206145
51
280.7579522142
0
ARC
8
90000_FRAME
62
7
6
CONTINUOUS
10
728.4231316278
20
2.1214306686
40
17.3316084133
50
65.3414674650
51
67.3997770736
0
ARC
8
90000_FRAME
62
7
6
CONTINUOUS
10
739.2189940332
20
27.9138570317
40
10.6291642039
50
242.8620101252
51
247.1042029186
0
ARC
8
90000_FRAME
62
7
6
CONTINUOUS
10
735.3640928067
20
20.3799255347
40
2.1662916292
50
227.3119280794
51
242.7040315235
0
ARC
8
90000_FRAME
62
7
6
CONTINUOUS
10
734.7600619970
20
19.6742478939
40
1.2385217340
50
194.7952194236
51
225.7176549047
0
ARC
8
90000_FRAME
62
7
6
CONTINUOUS
10
734.8222201312
20
19.7144678630
40
1.3090920729
50
164.1974860461
51
195.8025139539
0
ARC
8
90000_FRAME
62
7
6
CONTINUOUS
10
735.3792438519
20
18.8262007031
40
2.3669248153
50
86.2218022928
51
120.4272602309
0
ARC
8
90000_FRAME
62
7
6
CONTINUOUS
10
735.1103870694
20
12.1300328820
40
9.0679051661
50
78.6827049226
51
87.3147599624
0
ARC
8
90000_FRAME
62
7
6
CONTINUOUS
10
734.6543178909
20
19.8219756256
40
1.1197474440
50
142.8139179030
51
167.1522951417
0
ARC
8
90000_FRAME
62
7
6
CONTINUOUS
10
734.9996272325
20
19.5153939289
40
1.5805466845
50
121.2140948535
51
141.5254768286
0
ARC
8
90000_FRAME
62
7
6
CONTINUOUS
10
735.5768015981
20
20.3264512575
40
0.8661276052
50
222.7760387596
51
239.0362434679
0
ARC
8
90000_FRAME
62
7
6
CONTINUOUS
10
733.0700920198
20
12.9961790590
40
6.8587735763
50
59.9020272560
51
68.2036481279
0
ARC
8
90000_FRAME
62
7
6
CONTINUOUS
10
736.4785865137
20
21.9220655662
40
2.6987410171
50
240.0481997804
51
251.3779673737
0
ARC
8
90000_FRAME
62
7
6
CONTINUOUS
10
735.8131293469
20
17.7651669508
40
1.4334474881
50
315.8904553224
51
333.5229264373
0
ARC
8
90000_FRAME
62
7
6
CONTINUOUS
10
735.8177675906
20
17.7117598007
40
1.4062287119
50
335.3867972702
51
24.3915119402
0
ARC
8
90000_FRAME
62
7
6
CONTINUOUS
10
735.7455626871
20
17.6339031089
40
1.5047025148
50
25.9562916605
51
59.4834829668
0
ARC
8
90000_FRAME
62
7
6
CONTINUOUS
10
707.6745179207
20
18.2730390135
40
1.1116193606
50
277.7099956934
51
295.6884927746
0
ARC
8
90000_FRAME
62
7
6
CONTINUOUS
10
707.9588279034
20
17.5482132499
40
0.3401689265
50
305.5032212557
51
72.4652898515
0
ARC
8
90000_FRAME
62
7
6
CONTINUOUS
10
707.3928340953
20
20.9499201595
40
4.7567946411
50
252.5939200545
51
280.9816604253
0
ARC
8
90000_FRAME
62
7
6
CONTINUOUS
10
707.8476694584
20
18.3319064230
40
2.1007265953
50
282.4058358513
51
311.8644433923
0
ARC
8
90000_FRAME
62
7
6
CONTINUOUS
10
707.5741051113
20
19.9402481445
40
0.3029626476
50
154.4400348282
51
221.8201698801
0
ARC
8
90000_FRAME
62
7
6
CONTINUOUS
10
707.6533262627
20
19.8610269931
40
0.4103089737
50
102.8287828727
51
149.2259639027
0
ARC
8
90000_FRAME
62
7
6
CONTINUOUS
10
708.0703530983
20
18.1186916633
40
2.2018365570
50
84.0400061859
51
103.3427657872
0
ARC
8
90000_FRAME
62
7
6
CONTINUOUS
10
707.7293892736
20
15.7013277394
40
4.6423737365
50
70.2625858546
51
82.9524186379
0
ARC
8
90000_FRAME
62
7
6
CONTINUOUS
10
707.2153710714
20
20.3729506290
40
3.2587559909
50
247.5300206148
51
280.7579522145
0
ARC
8
90000_FRAME
62
7
6
CONTINUOUS
10
700.8304045994
20
2.1214306686
40
17.3316084133
50
65.3414674650
51
67.3997770736
0
ARC
8
90000_FRAME
62
7
6
CONTINUOUS
10
711.6262670048
20
27.9138570317
40
10.6291642039
50
242.8620101252
51
247.1042029185
0
ARC
8
90000_FRAME
62
7
6
CONTINUOUS
10
707.7713657782
20
20.3799255347
40
2.1662916292
50
227.3119280794
51
242.7040315235
0
ARC
8
90000_FRAME
62
7
6
CONTINUOUS
10
707.1673349686
20
19.6742478939
40
1.2385217340
50
194.7952194234
51
225.7176549042
0
ARC
8
90000_FRAME
62
7
6
CONTINUOUS
10
707.7865168234
20
18.8262007031
40
2.3669248153
50
86.2218022928
51
120.4272602309
0
ARC
8
90000_FRAME
62
7
6
CONTINUOUS
10
707.5176600409
20
12.1300328820
40
9.0679051661
50
78.6827049226
51
87.3147599624
0
ARC
8
90000_FRAME
62
7
6
CONTINUOUS
10
707.4069002041
20
19.5153939289
40
1.5805466846
50
121.2140948541
51
141.5254768290
0
ARC
8
90000_FRAME
62
7
6
CONTINUOUS
10
707.9840745697
20
20.3264512575
40
0.8661276052
50
222.7760387596
51
239.0362434679
0
ARC
8
90000_FRAME
62
7
6
CONTINUOUS
10
705.4773649914
20
12.9961790590
40
6.8587735763
50
59.9020272562
51
68.2036481282
0
ARC
8
90000_FRAME
62
7
6
CONTINUOUS
10
708.8858594852
20
21.9220655662
40
2.6987410171
50
240.0481997804
51
251.3779673734
0
ARC
8
90000_FRAME
62
7
6
CONTINUOUS
10
708.2204023184
20
17.7651669508
40
1.4334474881
50
315.8904553226
51
333.5229264375
0
ARC
8
90000_FRAME
62
7
6
CONTINUOUS
10
708.2250405622
20
17.7117598007
40
1.4062287119
50
335.3867972703
51
24.3915119403
0
ARC
8
90000_FRAME
62
7
6
CONTINUOUS
10
708.1528356587
20
17.6339031089
40
1.5047025147
50
25.9562916611
51
59.4834829676
0
ARC
8
90000_FRAME
62
7
6
CONTINUOUS
10
707.2294931027
20
19.7144678630
40
1.3090920729
50
164.1974860461
51
195.8025139539
0
ARC
8
90000_FRAME
62
7
6
CONTINUOUS
10
707.0615908625
20
19.8219756256
40
1.1197474440
50
142.8139179030
51
167.1522951417
0
CIRCLE
8
91000_TIP
62
7
6
CONTINUOUS
10
686.2690050743
20
18.0214775409
40
4.9999998979
0
CIRCLE
8
91000_TIP
62
7
6
CONTINUOUS
10
686.2690050743
20
18.0214775409
40
2.4999999489
0
ENDSEC
0
EOF
