0
SECTION
2
HEADER
9
$EXTMAX
10
594.0000000000
20
420.0000000000
9
$EXTMIN
10
0.0000000000
20
0.0000000000
9
$LIMMIN
10
0.0000000000
20
0.0000000000
9
$LIMMAX
10
594.0000000000
20
420.0000000000
9
$VIEWCTR
10
297.0000000000
20
210.0000000000
9
$VIEWSIZE
40
420.0000000000
9
$CLAYER
8
0
9
$LTSCALE
40
32.6700000000
9
$CELTYPE
6
BYLAYER
9
$DIMSCALE
40
1
9
$DIMASZ
40
3.5000000000
9
$DIMEXO
40
3.7125000000
9
$DIMDLI
40
22.5720000000
9
$DIMEXE
40
10.6920000000
9
$DIMCEN
40
5.3460000000
9
$DIMLFAC
40
1.0000000000
0
ENDSEC
0
SECTION
2
TABLES
0
TABLE
2
LTYPE
70
6
0
LTYPE
2
BYBLOCK
70
0
3

72
65
73
0
40
0.0
0
LTYPE
2
BYLAYER
70
0
3

72
65
73
0
40
0.0
0
LTYPE
2
CONTINUOUS
70
64
3
Solid line
72
65
73
0
40
0
0
LTYPE
2
CENTER
70
64
3
____ _ ____ _ ____ _ ____ _ ____ _ ____ _ ____
72
65
73
4
40
0.6
49
0.375
49
-0.075
49
0.075
49
-0.075
0
LTYPE
2
HIDDEN
70
64
3
- - - - - - - - - - - - - - - - - - - -
72
65
73
2
40
0.2
49
0.1
49
-0.1
0
LTYPE
2
PHANTOM
70
64
3
_____ _ _ _____ _ _ _____ _ _ _____
72
65
73
6
40
0.8
49
0.45
49
-0.05
49
0.1
49
-0.05
49
0.1
49
-0.05
0
LTYPE
2
DOT
70
64
3
. . . . . . . . . . . . . . . . . . . .
72
65
73
2
40
0.2
49
0.1
49
-0.1
0
LTYPE
2
DASHED
70
64
3
- - - - - - - - - - - - - - - - - - - -
72
65
73
2
40
0.2
49
0.1
49
-0.1
0
ENDTAB
0
TABLE
2
LAYER
70
36
0
LAYER
2
0
70
0
62
7
6
CONTINUOUS
0
LAYER
2
DEFAULT_1
70
0
62
7
6
CENTER
0
LAYER
2
DEFAULT_2
70
0
62
8
6
HIDDEN
0
LAYER
2
DEFAULT_3
70
0
62
7
6
PHANTOM
0
LAYER
2
10000_FRONT
70
0
62
7
6
CONTINUOUS
0
LAYER
2
10100_DIM_FRONT
70
0
62
7
6
CONTINUOUS
0
LAYER
2
10300_FRONT_GERMAN_ENGLISH
70
0
62
7
6
CONTINUOUS
0
LAYER
2
11000_LEFT
70
0
62
7
6
CONTINUOUS
0
LAYER
2
11100_DIM_LEFT
70
0
62
7
6
CONTINUOUS
0
LAYER
2
11300_LEFT_GERMAN_ENGLISH
70
0
62
7
6
CONTINUOUS
0
LAYER
2
12000_RIGHT
70
0
62
7
6
CONTINUOUS
0
LAYER
2
12100_DIM_RIGHT
70
0
62
7
6
CONTINUOUS
0
LAYER
2
12300_RIGHT_GERMAN_ENGLISH
70
0
62
7
6
CONTINUOUS
0
LAYER
2
13000_TOP
70
0
62
7
6
CONTINUOUS
0
LAYER
2
13100_DIM_TOP
70
0
62
7
6
CONTINUOUS
0
LAYER
2
13300_TOP_GERMAN_ENGLISH
70
0
62
7
6
CONTINUOUS
0
LAYER
2
14000_BOTTOM
70
0
62
7
6
CONTINUOUS
0
LAYER
2
14100_DIM_BOTTOM
70
0
62
7
6
CONTINUOUS
0
LAYER
2
14300_BOTTOM_GERMAN_ENGLISH
70
0
62
7
6
CONTINUOUS
0
LAYER
2
15000_BACK
70
0
62
7
6
CONTINUOUS
0
LAYER
2
15100_DIM_BACK
70
0
62
7
6
CONTINUOUS
0
LAYER
2
15300_BACK_GERMAN_ENGLISH
70
0
62
7
6
CONTINUOUS
0
LAYER
2
20000_FRONT_O
70
0
62
7
6
CONTINUOUS
0
LAYER
2
20100_DIM_FRONT_O
70
0
62
7
6
CONTINUOUS
0
LAYER
2
20300_FRONT_O_GERMAN_ENGLISH
70
0
62
7
6
CONTINUOUS
0
LAYER
2
40000_ISO
70
0
62
7
6
CONTINUOUS
0
LAYER
2
40300_ISO_GERMAN_ENGLISH
70
0
62
7
6
CONTINUOUS
0
LAYER
2
50000_WIRING
70
0
62
7
6
CONTINUOUS
0
LAYER
2
50300_WIRING_GERMAN_ENGLISH
70
0
62
7
6
CONTINUOUS
0
LAYER
2
90000_FRAME
70
0
62
7
6
CONTINUOUS
0
LAYER
2
91000_TIP
70
0
62
7
6
CONTINUOUS
0
ENDTAB
0
ENDSEC
0
SECTION
2
BLOCKS
0
BLOCK
8
10100_DIM_FRONT
62
7
6
CONTINUOUS
2
*D0
70
65
10
0.0000000000
20
0.0000000000
0
TEXT
8
10100_DIM_FRONT
62
7
6
CONTINUOUS
10
185.6586035738
20
207.4269932934
40
3.5000000000
1
160
72
5
11
193.1586035738
21
207.4269932934
0
LINE
8
10100_DIM_FRONT
62
7
6
CONTINUOUS
10
273.3884053805
20
233.6844060438
11
273.3884053805
21
204.5519932934
0
LINE
8
10100_DIM_FRONT
62
7
6
CONTINUOUS
10
113.3884053805
20
233.1975338657
11
113.3884053805
21
204.5519932934
0
LINE
8
10100_DIM_FRONT
62
7
6
CONTINUOUS
10
273.3884053805
20
206.5519932934
11
193.3884053805
21
206.5519932934
0
LINE
8
10100_DIM_FRONT
62
7
6
CONTINUOUS
10
113.3884053805
20
206.5519932934
11
193.3884053805
21
206.5519932934
0
SOLID
8
10100_DIM_FRONT
62
7
6
CONTINUOUS
10
269.8884053805
20
206.0519932934
11
273.3884053805
21
206.5519932934
12
269.8884053805
22
207.0519932934
13
269.8884053805
23
207.0519932934
0
SOLID
8
10100_DIM_FRONT
62
7
6
CONTINUOUS
10
116.8884053805
20
207.0519932934
11
113.3884053805
21
206.5519932934
12
116.8884053805
22
206.0519932934
13
116.8884053805
23
206.0519932934
0
ENDBLK
8
0
0
BLOCK
8
10100_DIM_FRONT
62
7
6
CONTINUOUS
2
*D1
70
65
10
0.0000000000
20
0.0000000000
0
TEXT
8
10100_DIM_FRONT
62
7
6
CONTINUOUS
10
288.0871248295
20
275.7084311452
40
3.5000000000
1
122
50
90.0000000000
72
5
11
288.0871248295
21
283.2084311452
0
LINE
8
10100_DIM_FRONT
62
7
6
CONTINUOUS
10
273.3884053805
20
343.9168436571
11
290.9621248295
21
343.9168436571
0
LINE
8
10100_DIM_FRONT
62
7
6
CONTINUOUS
10
273.3884053805
20
221.9168436571
11
290.9621248295
21
221.9168436571
0
LINE
8
10100_DIM_FRONT
62
7
6
CONTINUOUS
10
288.9621248295
20
343.9168436571
11
288.9621248295
21
282.9168436571
0
LINE
8
10100_DIM_FRONT
62
7
6
CONTINUOUS
10
288.9621248295
20
221.9168436571
11
288.9621248295
21
282.9168436571
0
SOLID
8
10100_DIM_FRONT
62
7
6
CONTINUOUS
10
289.4621248295
20
340.4168436571
11
288.9621248295
21
343.9168436571
12
288.4621248295
22
340.4168436571
13
288.4621248295
23
340.4168436571
0
SOLID
8
10100_DIM_FRONT
62
7
6
CONTINUOUS
10
288.4621248295
20
225.4168436571
11
288.9621248295
21
221.9168436571
12
289.4621248295
22
225.4168436571
13
289.4621248295
23
225.4168436571
0
ENDBLK
8
0
0
BLOCK
8
11100_DIM_LEFT
62
7
6
CONTINUOUS
2
*D2
70
65
10
0.0000000000
20
0.0000000000
0
TEXT
8
11100_DIM_LEFT
62
7
6
CONTINUOUS
10
410.8814697205
20
209.6075593781
40
3.5000000000
1
15
72
5
11
415.3814697205
21
209.6075593781
0
LINE
8
11100_DIM_LEFT
62
7
6
CONTINUOUS
10
420.6755879681
20
222.4168436571
11
420.6755879681
21
206.7325593781
0
LINE
8
11100_DIM_LEFT
62
7
6
CONTINUOUS
10
405.6755879681
20
222.4168436571
11
405.6755879681
21
206.7325593781
0
LINE
8
11100_DIM_LEFT
62
7
6
CONTINUOUS
10
420.6755879681
20
208.7325593781
11
413.1755879681
21
208.7325593781
0
LINE
8
11100_DIM_LEFT
62
7
6
CONTINUOUS
10
405.6755879681
20
208.7325593781
11
413.1755879681
21
208.7325593781
0
SOLID
8
11100_DIM_LEFT
62
7
6
CONTINUOUS
10
417.1755879681
20
208.2325593781
11
420.6755879681
21
208.7325593781
12
417.1755879681
22
209.2325593781
13
417.1755879681
23
209.2325593781
0
SOLID
8
11100_DIM_LEFT
62
7
6
CONTINUOUS
10
409.1755879681
20
209.2325593781
11
405.6755879681
21
208.7325593781
12
409.1755879681
22
208.2325593781
13
409.1755879681
23
208.2325593781
0
ENDBLK
8
0
0
ENDSEC
0
SECTION
2
ENTITIES
0
DIMENSION
8
10100_DIM_FRONT
62
7
6
CONTINUOUS
2
*D0
10
113.3884053805
20
206.5519932934
11
189.4086035738
21
209.1769932934
70
128
13
273.3884053805
23
233.6844060438
14
113.3884053805
24
233.1975338657
50
180.000000
0
DIMENSION
8
10100_DIM_FRONT
62
7
6
CONTINUOUS
2
*D1
10
288.9621248295
20
221.9168436571
11
286.3371248295
21
279.4584311452
70
128
13
273.3884053805
23
343.9168436571
14
273.3884053805
24
221.9168436571
50
270.000000
0
DIMENSION
8
11100_DIM_LEFT
62
7
6
CONTINUOUS
2
*D2
10
405.6755879681
20
208.7325593781
11
413.1314697205
21
211.3575593781
70
128
13
420.6755879681
23
222.4168436571
14
405.6755879681
24
222.4168436571
50
180.000000
0
TEXT
8
90000_FRAME
62
7
6
CONTINUOUS
10
499.6600000000
20
11.9000000000
40
2.2000000000
1
Format / Size: DIN A2
72
5
11
533.2361904762
21
11.9000000000
0
TEXT
8
90000_FRAME
62
7
6
CONTINUOUS
10
542.1600000000
20
11.9000000000
40
2.2000000000
1
Massstab / Scale: 1:1
72
5
11
573.0647619048
21
11.9000000000
0
TEXT
8
90000_FRAME
62
7
6
CONTINUOUS
10
517.2500004493
20
20.2500000324
40
3.5000000000
1
6ES73901AB600AA0_001
72
5
11
571.0000004493
21
20.2500000324
0
TEXT
8
11300_LEFT_GERMAN_ENGLISH
62
7
6
CONTINUOUS
10
400.2802573341
20
354.3078494217
40
3.5000000000
1
Links / Left
72
5
11
428.7802573341
21
354.3078494217
0
TEXT
8
13300_TOP_GERMAN_ENGLISH
62
7
6
CONTINUOUS
10
111.9541234292
20
167.9672208935
40
3.5000000000
1
Oben / Top
72
5
11
138.3707900959
21
167.9672208935
0
TEXT
8
10300_FRONT_GERMAN_ENGLISH
62
7
6
CONTINUOUS
10
111.4129317744
20
354.0630376352
40
3.5000000000
1
Vorne / Front
72
5
11
143.9962651077
21
354.0630376352
0
TEXT
8
91000_TIP
62
7
6
CONTINUOUS
10
11.2756234532
20
15.1898618463
40
3.5000000000
1
Alle Bemassungswerte sind in Millimeter (mm) angegeben.
72
5
11
145.8589567865
21
15.1898618463
0
TEXT
8
91000_TIP
62
7
6
CONTINUOUS
10
11.2756234532
20
9.9398619436
40
3.5000000000
1
All dimensions are in millimeters (mm).
72
5
11
104.4422901199
21
9.9398619436
0
LINE
8
90000_FRAME
62
7
6
CONTINUOUS
10
0.0000000000
20
420.0000000000
11
0.0000000000
21
0.0000000000
0
LINE
8
90000_FRAME
62
7
6
CONTINUOUS
10
5.0000000000
20
415.0000000000
11
5.0000000000
21
5.0000000000
0
LINE
8
91000_TIP
62
7
6
CONTINUOUS
10
422.7797812733
20
20.8043438692
11
432.7797810691
21
23.3043438181
0
LINE
8
90000_FRAME
62
7
6
CONTINUOUS
10
0.0000000000
20
0.0000000000
11
594.0000000000
21
0.0000000000
0
LINE
8
90000_FRAME
62
7
6
CONTINUOUS
10
5.0000000000
20
5.0000000000
11
589.0000000000
21
5.0000000000
0
LINE
8
90000_FRAME
62
7
6
CONTINUOUS
10
449.0000000000
20
10.0000000000
11
584.0000000000
21
10.0000000000
0
LINE
8
90000_FRAME
62
7
6
CONTINUOUS
10
499.0000000000
20
16.0000000000
11
584.0000000000
21
16.0000000000
0
LINE
8
90000_FRAME
62
7
6
CONTINUOUS
10
472.3969334385
20
16.7492119180
11
473.2525218735
21
16.7492119180
0
LINE
8
90000_FRAME
62
7
6
CONTINUOUS
10
485.5872551446
20
16.7967446088
11
484.0662090379
21
16.7967446088
0
LINE
8
90000_FRAME
62
7
6
CONTINUOUS
10
475.9618852509
20
16.7967446088
11
474.5834372168
21
16.7967446088
0
LINE
8
90000_FRAME
62
7
6
CONTINUOUS
10
463.2231241078
20
16.7967446088
11
464.6491048328
21
16.7967446088
0
LINE
8
90000_FRAME
62
7
6
CONTINUOUS
10
465.7423567219
20
16.7967446088
11
469.3073085344
21
16.7967446088
0
LINE
8
90000_FRAME
62
7
6
CONTINUOUS
10
470.1153642785
20
16.7967446088
11
471.0660180952
21
16.7967446088
0
LINE
8
90000_FRAME
62
7
6
CONTINUOUS
10
477.0551371401
20
16.7967446088
11
480.6200889526
21
16.7967446088
0
LINE
8
90000_FRAME
62
7
6
CONTINUOUS
10
481.4043783513
20
16.7967446088
11
482.3550321680
21
16.7967446088
0
LINE
8
90000_FRAME
62
7
6
CONTINUOUS
10
480.6200889526
20
17.6998657346
11
478.4335851743
21
17.6998657346
0
LINE
8
90000_FRAME
62
7
6
CONTINUOUS
10
469.3073085344
20
17.6998657346
11
467.1208047561
21
17.6998657346
0
LINE
8
91000_TIP
62
7
6
CENTER
10
421.5002708014
20
18.3043439202
11
445.1022600655
21
18.3043439202
0
LINE
8
90000_FRAME
62
7
6
CONTINUOUS
10
480.2873601167
20
18.8168839692
11
478.4335851743
21
18.8168839692
0
LINE
8
90000_FRAME
62
7
6
CONTINUOUS
10
468.9745796985
20
18.8168839692
11
467.1208047561
21
18.8168839692
0
LINE
8
90000_FRAME
62
7
6
CONTINUOUS
10
480.2873601167
20
19.6011733680
11
478.4335851743
21
19.6011733680
0
LINE
8
90000_FRAME
62
7
6
CONTINUOUS
10
468.9745796985
20
19.6011733680
11
467.1208047561
21
19.6011733680
0
LINE
8
90000_FRAME
62
7
6
CONTINUOUS
10
480.5725562617
20
20.6706589117
11
478.4335851743
21
20.6706589117
0
LINE
8
90000_FRAME
62
7
6
CONTINUOUS
10
469.2597758435
20
20.6706589117
11
467.1208047561
21
20.6706589117
0
LINE
8
90000_FRAME
62
7
6
CONTINUOUS
10
485.5872551446
20
21.5500136921
11
484.6366013279
21
21.5500136921
0
LINE
8
90000_FRAME
62
7
6
CONTINUOUS
10
482.9491908034
20
21.5500136921
11
481.4043783513
21
21.5500136921
0
LINE
8
90000_FRAME
62
7
6
CONTINUOUS
10
480.5725562617
20
21.5500136921
11
477.0551371401
21
21.5500136921
0
LINE
8
90000_FRAME
62
7
6
CONTINUOUS
10
475.9618852509
20
21.5500136921
11
474.2507083810
21
21.5500136921
0
LINE
8
90000_FRAME
62
7
6
CONTINUOUS
10
471.8265411485
20
21.5500136921
11
470.1153642785
21
21.5500136921
0
LINE
8
90000_FRAME
62
7
6
CONTINUOUS
10
469.2597758435
20
21.5500136921
11
465.7423567219
21
21.5500136921
0
LINE
8
90000_FRAME
62
7
6
CONTINUOUS
10
463.2231241078
20
21.5500136921
11
464.6491048328
21
21.5500136921
0
LINE
8
10000_FRONT
62
7
6
CONTINUOUS
10
122.8741864983
20
286.7943923758
11
122.9075767702
21
286.4127398214
0
LINE
8
13000_TOP
62
7
6
CONTINUOUS
10
113.3884053805
20
141.8189839850
11
113.3884053805
21
156.8189839850
0
LINE
8
10000_FRONT
62
7
6
CONTINUOUS
10
113.3884053805
20
221.9168436571
11
113.3884053805
21
233.1971354231
0
LINE
8
10000_FRONT
62
7
6
CONTINUOUS
10
113.3884053805
20
233.1975338657
11
113.3884053805
21
343.9169322939
0
LINE
8
10000_FRONT
62
7
6
CONTINUOUS
10
118.3884053805
20
283.8035950030
11
118.3884053805
21
278.0300923111
0
LINE
8
10000_FRONT
62
7
6
CONTINUOUS
10
128.3884053805
20
278.0300923111
11
128.3884053805
21
283.8035950030
0
LINE
8
10000_FRONT
62
7
6
CONTINUOUS
10
123.9026242627
20
286.7943923758
11
123.8692339908
21
286.4127398214
0
LINE
8
90000_FRAME
62
7
6
CONTINUOUS
10
449.0000000000
20
28.0000000000
11
584.0000000000
21
28.0000000000
0
LINE
8
10000_FRONT
62
7
6
CONTINUOUS
10
123.3884053805
20
286.6903463490
11
118.3884053805
21
283.8035950030
0
LINE
8
10000_FRONT
62
7
6
CONTINUOUS
10
123.3884053805
20
275.1433409652
11
128.3884053805
21
278.0300923111
0
LINE
8
91000_TIP
62
7
6
CONTINUOUS
10
422.7797812733
20
15.8043439713
11
432.7797810691
21
13.3043440223
0
LINE
8
10000_FRONT
62
7
6
CONTINUOUS
10
174.3884053805
20
283.4168436571
11
174.3884053805
21
244.4168436571
0
LINE
8
13000_TOP
62
7
6
CONTINUOUS
10
273.3884053805
20
141.8189839850
11
113.3884053805
21
141.8189839850
0
LINE
8
13000_TOP
62
7
6
CONTINUOUS
10
273.3884053805
20
144.8189839850
11
113.3884053805
21
144.8189839850
0
LINE
8
10000_FRONT
62
7
6
CONTINUOUS
10
248.3884053805
20
244.4168436571
11
248.3884053805
21
283.4168436571
0
LINE
8
11000_LEFT
62
7
6
CONTINUOUS
10
417.7159183156
20
341.3514532595
11
407.1755879681
21
335.2659906960
0
LINE
8
11000_LEFT
62
7
6
CONTINUOUS
10
408.4255879681
20
333.1009271865
11
411.9157803470
21
335.1159906960
0
LINE
8
11000_LEFT
62
7
6
CONTINUOUS
10
412.4353955893
20
335.4159906960
11
412.9550108315
21
335.7159906960
0
LINE
8
11000_LEFT
62
7
6
CONTINUOUS
10
413.4746260738
20
336.0159906960
11
413.9942413161
21
336.3159906960
0
LINE
8
11000_LEFT
62
7
6
CONTINUOUS
10
414.5138565584
20
336.6159906960
11
417.4255879681
21
338.2970796093
0
LINE
8
13000_TOP
62
7
6
CONTINUOUS
10
113.3884053805
20
155.3189839850
11
273.3884053805
21
155.3189839850
0
LINE
8
13000_TOP
62
7
6
CONTINUOUS
10
113.3884053805
20
156.8189839850
11
273.3884053805
21
156.8189839850
0
LINE
8
13000_TOP
62
7
6
CONTINUOUS
10
273.3884053805
20
141.8189839850
11
273.3884053805
21
144.8184057811
0
LINE
8
13000_TOP
62
7
6
CONTINUOUS
10
273.3884053805
20
144.8189839850
11
273.3884053805
21
156.8189839850
0
LINE
8
10000_FRONT
62
7
6
CONTINUOUS
10
273.3884053805
20
221.9168436571
11
273.3884053805
21
233.1971354231
0
LINE
8
10000_FRONT
62
7
6
CONTINUOUS
10
273.3884053805
20
233.1975338657
11
273.3884053805
21
233.6839420100
0
LINE
8
10000_FRONT
62
7
6
CONTINUOUS
10
273.3884053805
20
233.6844060438
11
273.3884053805
21
343.9163572593
0
LINE
8
10000_FRONT
62
7
6
CONTINUOUS
10
118.3884053805
20
278.0300923111
11
123.3884053805
21
275.1433409652
0
LINE
8
10000_FRONT
62
7
6
CONTINUOUS
10
128.3884053805
20
283.8035950030
11
123.3884053805
21
286.6903463490
0
LINE
8
11000_LEFT
62
7
6
CONTINUOUS
10
407.8755879681
20
311.4918436571
11
408.1755879681
21
311.7918436571
0
LINE
8
11000_LEFT
62
7
6
CONTINUOUS
10
407.8755879681
20
289.4168436571
11
408.1755879681
21
289.7168436571
0
LINE
8
10000_FRONT
62
7
6
CONTINUOUS
10
113.3884053805
20
221.9168436571
11
273.3884053805
21
221.9168436571
0
LINE
8
11000_LEFT
62
7
6
CONTINUOUS
10
406.1755879681
20
221.9168436571
11
409.6255879681
21
221.9168436571
0
LINE
8
11000_LEFT
62
7
6
CONTINUOUS
10
416.7255879681
20
221.9168436571
11
420.1755879681
21
221.9168436571
0
LINE
8
10000_FRONT
62
7
6
CONTINUOUS
10
113.3884053805
20
222.4168436571
11
273.3884053805
21
222.4168436571
0
LINE
8
11000_LEFT
62
7
6
CONTINUOUS
10
417.9255879681
20
224.4168436571
11
416.5255879681
21
224.4168436571
0
LINE
8
11000_LEFT
62
7
6
CONTINUOUS
10
409.8255879681
20
224.4168436571
11
408.4255879681
21
224.4168436571
0
LINE
8
10000_FRONT
62
7
6
CONTINUOUS
10
273.3884053805
20
228.9686836799
11
113.3884053805
21
228.9686836799
0
LINE
8
10000_FRONT
62
7
6
CONTINUOUS
10
113.3884053805
20
229.4039569524
11
273.3884053805
21
229.4039569524
0
LINE
8
10000_FRONT
62
7
6
CONTINUOUS
10
113.3884053805
20
229.7976212975
11
273.3884053805
21
229.7976212975
0
LINE
8
10000_FRONT
62
7
6
CONTINUOUS
10
113.3884053805
20
230.1630100718
11
273.3884053805
21
230.1630100718
0
LINE
8
10000_FRONT
62
7
6
CONTINUOUS
10
113.3884053805
20
230.4028742956
11
273.3884053805
21
230.4028742956
0
LINE
8
10000_FRONT
62
7
6
CONTINUOUS
10
113.3884053805
20
230.4613522326
11
273.3884053805
21
230.4613522326
0
LINE
8
10000_FRONT
62
7
6
CONTINUOUS
10
113.3884053805
20
230.4664782196
11
273.3884053805
21
230.4664782196
0
LINE
8
10000_FRONT
62
7
6
CONTINUOUS
10
113.3884053805
20
230.6503204554
11
273.3884053805
21
230.6503204554
0
LINE
8
10000_FRONT
62
7
6
CONTINUOUS
10
113.3884053805
20
230.7087983924
11
273.3884053805
21
230.7087983924
0
LINE
8
10000_FRONT
62
7
6
CONTINUOUS
10
113.3884053805
20
230.7139243794
11
273.3884053805
21
230.7139243794
0
LINE
8
10000_FRONT
62
7
6
CONTINUOUS
10
113.3884053805
20
230.8977666152
11
273.3884053805
21
230.8977666152
0
LINE
8
10000_FRONT
62
7
6
CONTINUOUS
10
113.3884053805
20
230.9562445521
11
273.3884053805
21
230.9562445521
0
LINE
8
10000_FRONT
62
7
6
CONTINUOUS
10
113.3884053805
20
230.9613705392
11
273.3884053805
21
230.9613705392
0
LINE
8
10000_FRONT
62
7
6
CONTINUOUS
10
113.3884053805
20
231.1452127750
11
273.3884053805
21
231.1452127750
0
LINE
8
10000_FRONT
62
7
6
CONTINUOUS
10
113.3884053805
20
231.2036907119
11
273.3884053805
21
231.2036907119
0
LINE
8
10000_FRONT
62
7
6
CONTINUOUS
10
113.3884053805
20
231.2088166990
11
273.3884053805
21
231.2088166990
0
LINE
8
10000_FRONT
62
7
6
CONTINUOUS
10
113.3884053805
20
231.3926589348
11
273.3884053805
21
231.3926589348
0
LINE
8
10000_FRONT
62
7
6
CONTINUOUS
10
113.3884053805
20
231.4511368717
11
273.3884053805
21
231.4511368717
0
LINE
8
10000_FRONT
62
7
6
CONTINUOUS
10
113.3884053805
20
231.4562628587
11
273.3884053805
21
231.4562628587
0
LINE
8
10000_FRONT
62
7
6
CONTINUOUS
10
113.3884053805
20
231.6401050945
11
273.3884053805
21
231.6401050945
0
LINE
8
10000_FRONT
62
7
6
CONTINUOUS
10
113.3884053805
20
231.6985830315
11
273.3884053805
21
231.6985830315
0
LINE
8
10000_FRONT
62
7
6
CONTINUOUS
10
113.3884053805
20
231.7037090185
11
273.3884053805
21
231.7037090185
0
LINE
8
10000_FRONT
62
7
6
CONTINUOUS
10
113.3884053805
20
231.8875512543
11
273.3884053805
21
231.8875512543
0
LINE
8
10000_FRONT
62
7
6
CONTINUOUS
10
113.3884053805
20
231.9460291913
11
273.3884053805
21
231.9460291913
0
LINE
8
10000_FRONT
62
7
6
CONTINUOUS
10
113.3884053805
20
231.9511551783
11
273.3884053805
21
231.9511551783
0
LINE
8
10000_FRONT
62
7
6
CONTINUOUS
10
113.3884053805
20
232.1349974141
11
273.3884053805
21
232.1349974141
0
LINE
8
10000_FRONT
62
7
6
CONTINUOUS
10
113.3884053805
20
232.1934753510
11
273.3884053805
21
232.1934753510
0
LINE
8
10000_FRONT
62
7
6
CONTINUOUS
10
113.3884053805
20
232.1986013381
11
273.3884053805
21
232.1986013381
0
LINE
8
10000_FRONT
62
7
6
CONTINUOUS
10
113.3884053805
20
232.3824435739
11
273.3884053805
21
232.3824435739
0
LINE
8
10000_FRONT
62
7
6
CONTINUOUS
10
273.3884053805
20
232.3883357465
11
113.3884053805
21
232.3883357465
0
LINE
8
10000_FRONT
62
7
6
CONTINUOUS
10
113.3884053805
20
233.1971354231
11
273.3884053805
21
233.1971354231
0
LINE
8
10000_FRONT
62
7
6
CONTINUOUS
10
113.3884053805
20
233.3521452122
11
273.3884053805
21
233.3521452122
0
LINE
8
11000_LEFT
62
7
6
CONTINUOUS
10
420.0755879681
20
277.9168436571
11
420.6755879681
21
278.5168436571
0
LINE
8
10000_FRONT
62
7
6
CONTINUOUS
10
113.3884053805
20
233.6839420100
11
273.3884053805
21
233.6839420100
0
LINE
8
10000_FRONT
62
7
6
CONTINUOUS
10
113.3884053805
20
234.1839420100
11
273.3884053805
21
234.1839420100
0
LINE
8
10000_FRONT
62
7
6
CONTINUOUS
10
113.3884053805
20
236.0168436571
11
273.3884053805
21
236.0168436571
0
LINE
8
11000_LEFT
62
7
6
CONTINUOUS
10
420.1755879681
20
236.5168436571
11
416.4053921293
21
236.5168436571
0
LINE
8
10000_FRONT
62
7
6
CONTINUOUS
10
113.3884053805
20
236.5168436571
11
273.3884053805
21
236.5168436571
0
LINE
8
10000_FRONT
62
7
6
CONTINUOUS
10
273.3884053805
20
238.3273765830
11
113.3884053805
21
238.3273765830
0
LINE
8
10000_FRONT
62
7
6
CONTINUOUS
10
273.3884053805
20
238.8145616154
11
113.3884053805
21
238.8145616154
0
LINE
8
10000_FRONT
62
7
6
CONTINUOUS
10
176.3884053805
20
242.4168436571
11
246.3884053805
21
242.4168436571
0
LINE
8
10000_FRONT
62
7
6
CONTINUOUS
10
119.5870898187
20
250.9418436571
11
127.1897209422
21
250.9418436571
0
LINE
8
10000_FRONT
62
7
6
CONTINUOUS
10
259.5870898187
20
250.9418436571
11
267.1897209422
21
250.9418436571
0
LINE
8
10000_FRONT
62
7
6
CONTINUOUS
10
273.3884053805
20
254.0418436571
11
268.4795742050
21
254.0418436571
0
LINE
8
10000_FRONT
62
7
6
CONTINUOUS
10
258.2972365559
20
254.0418436571
11
248.3884053805
21
254.0418436571
0
LINE
8
10000_FRONT
62
7
6
CONTINUOUS
10
174.3884053805
20
254.0418436571
11
128.4795742050
21
254.0418436571
0
LINE
8
10000_FRONT
62
7
6
CONTINUOUS
10
118.2972365559
20
254.0418436571
11
113.3884053805
21
254.0418436571
0
LINE
8
11000_LEFT
62
7
6
CONTINUOUS
10
409.8459433479
20
229.1613453334
11
410.0069568501
21
229.1374324370
0
LINE
8
11000_LEFT
62
7
6
CONTINUOUS
10
410.6004473395
20
229.0492902851
11
411.1939378290
21
228.9611481332
0
LINE
8
11000_LEFT
62
7
6
CONTINUOUS
10
411.7874283184
20
228.8730059813
11
412.3809188079
21
228.7848638294
0
LINE
8
11000_LEFT
62
7
6
CONTINUOUS
10
412.9744092973
20
228.6967216775
11
413.5678997868
21
228.6085795256
0
LINE
8
11000_LEFT
62
7
6
CONTINUOUS
10
414.1613902762
20
228.5204373737
11
414.7548807656
21
228.4322952218
0
LINE
8
11000_LEFT
62
7
6
CONTINUOUS
10
415.3483712551
20
228.3441530699
11
415.9418617445
21
228.2560109180
0
LINE
8
11000_LEFT
62
7
6
CONTINUOUS
10
416.5353522340
20
228.1678687661
11
417.1288427234
21
228.0797266142
0
LINE
8
11000_LEFT
62
7
6
CONTINUOUS
10
417.7223332129
20
227.9915844623
11
418.2255879681
21
227.9168436571
0
LINE
8
11000_LEFT
62
7
6
CONTINUOUS
10
407.8755879681
20
254.3418436571
11
408.1755879681
21
254.6418436571
0
LINE
8
10000_FRONT
62
7
6
CONTINUOUS
10
273.3884053805
20
254.3418436571
11
268.4884053805
21
254.3418436571
0
LINE
8
10000_FRONT
62
7
6
CONTINUOUS
10
258.2884053805
20
254.3418436571
11
248.3884053805
21
254.3418436571
0
LINE
8
10000_FRONT
62
7
6
CONTINUOUS
10
174.3884053805
20
254.3418436571
11
128.4884053805
21
254.3418436571
0
LINE
8
10000_FRONT
62
7
6
CONTINUOUS
10
118.2884053805
20
254.3418436571
11
113.3884053805
21
254.3418436571
0
LINE
8
10000_FRONT
62
7
6
CONTINUOUS
10
273.3884053805
20
254.6418436571
11
268.4795742050
21
254.6418436571
0
LINE
8
10000_FRONT
62
7
6
CONTINUOUS
10
258.2972365559
20
254.6418436571
11
248.3884053805
21
254.6418436571
0
LINE
8
10000_FRONT
62
7
6
CONTINUOUS
10
174.3884053805
20
254.6418436571
11
128.4795742050
21
254.6418436571
0
LINE
8
10000_FRONT
62
7
6
CONTINUOUS
10
118.2972365559
20
254.6418436571
11
113.3884053805
21
254.6418436571
0
LINE
8
10000_FRONT
62
7
6
CONTINUOUS
10
267.1897209422
20
257.7418436571
11
259.5870898187
21
257.7418436571
0
LINE
8
10000_FRONT
62
7
6
CONTINUOUS
10
127.1897209422
20
257.7418436571
11
119.5870898187
21
257.7418436571
0
LINE
8
11000_LEFT
62
7
6
CONTINUOUS
10
408.1755879681
20
274.6668436571
11
409.7755879681
21
274.6668436571
0
LINE
8
11000_LEFT
62
7
6
CONTINUOUS
10
420.2088145304
20
229.4039569524
11
418.5036669170
21
229.7976212975
0
LINE
8
11000_LEFT
62
7
6
CONTINUOUS
10
417.7151259002
20
229.9796703357
11
417.4318598457
21
230.0450674573
0
LINE
8
11000_LEFT
62
7
6
CONTINUOUS
10
416.6433188289
20
230.2271164955
11
416.3600527745
21
230.2925136171
0
LINE
8
11000_LEFT
62
7
6
CONTINUOUS
10
415.5715117577
20
230.4745626553
11
415.2882457032
21
230.5399597769
0
LINE
8
11000_LEFT
62
7
6
CONTINUOUS
10
414.4997046864
20
230.7220088150
11
414.2164386319
21
230.7874059366
0
LINE
8
11000_LEFT
62
7
6
CONTINUOUS
10
413.4278976151
20
230.9694549748
11
413.1446315607
21
231.0348520964
0
LINE
8
11000_LEFT
62
7
6
CONTINUOUS
10
412.3560905439
20
231.2169011346
11
412.0728244894
21
231.2822982562
0
LINE
8
11000_LEFT
62
7
6
CONTINUOUS
10
411.2842834726
20
231.4643472944
11
411.0010174182
21
231.5297444160
0
LINE
8
11000_LEFT
62
7
6
CONTINUOUS
10
410.2124764014
20
231.7117934541
11
409.9292103469
21
231.7771905757
0
LINE
8
11000_LEFT
62
7
6
CONTINUOUS
10
418.4381397603
20
230.4028742956
11
418.1848439873
21
230.4613522326
0
LINE
8
11000_LEFT
62
7
6
CONTINUOUS
10
417.3663326890
20
230.6503204554
11
417.1130369160
21
230.7087983924
0
LINE
8
11000_LEFT
62
7
6
CONTINUOUS
10
416.2945256178
20
230.8977666152
11
416.0412298447
21
230.9562445521
0
LINE
8
11000_LEFT
62
7
6
CONTINUOUS
10
415.2227185465
20
231.1452127750
11
414.9694227735
21
231.2036907119
0
LINE
8
11000_LEFT
62
7
6
CONTINUOUS
10
414.1509114752
20
231.3926589348
11
413.8976157022
21
231.4511368717
0
LINE
8
11000_LEFT
62
7
6
CONTINUOUS
10
413.0791044040
20
231.6401050945
11
412.8258086309
21
231.6985830315
0
LINE
8
11000_LEFT
62
7
6
CONTINUOUS
10
412.0072973327
20
231.8875512543
11
411.7540015597
21
231.9460291913
0
LINE
8
11000_LEFT
62
7
6
CONTINUOUS
10
410.9354902614
20
232.1349974141
11
410.6821944884
21
232.1934753510
0
LINE
8
11000_LEFT
62
7
6
CONTINUOUS
10
409.8636831902
20
232.3824435739
11
409.8381613866
21
232.3883357465
0
LINE
8
11000_LEFT
62
7
6
CONTINUOUS
10
410.5130145497
20
235.3114459408
11
411.0744398888
21
235.1818306883
0
LINE
8
11000_LEFT
62
7
6
CONTINUOUS
10
411.8929511871
20
234.9928624655
11
412.1462469601
21
234.9343845286
0
LINE
8
11000_LEFT
62
7
6
CONTINUOUS
10
412.9647582583
20
234.7454163057
11
413.2180540314
21
234.6869383688
0
LINE
8
11000_LEFT
62
7
6
CONTINUOUS
10
414.0365653296
20
234.4979701459
11
414.2898611026
21
234.4394922090
0
LINE
8
11000_LEFT
62
7
6
CONTINUOUS
10
415.1083724009
20
234.2505239862
11
415.3616681739
21
234.1920460492
0
LINE
8
11000_LEFT
62
7
6
CONTINUOUS
10
416.1801794721
20
234.0030778264
11
416.4334752452
21
233.9445998894
0
LINE
8
11000_LEFT
62
7
6
CONTINUOUS
10
417.2519865434
20
233.7556316666
11
417.5052823164
21
233.6971537297
0
LINE
8
11000_LEFT
62
7
6
CONTINUOUS
10
418.3237936147
20
233.5081855068
11
418.5770893877
21
233.4497075699
0
LINE
8
11000_LEFT
62
7
6
CONTINUOUS
10
419.3956006859
20
233.2607393471
11
419.6488964590
21
233.2022614101
0
LINE
8
11000_LEFT
62
7
6
CONTINUOUS
10
411.3986607581
20
235.6971032647
11
411.6819268125
21
235.6317061431
0
LINE
8
11000_LEFT
62
7
6
CONTINUOUS
10
412.4704678293
20
235.4496571049
11
412.7537338838
21
235.3842599833
0
LINE
8
11000_LEFT
62
7
6
CONTINUOUS
10
413.5422749006
20
235.2022109452
11
413.8255409550
21
235.1368138236
0
LINE
8
11000_LEFT
62
7
6
CONTINUOUS
10
414.6140819718
20
234.9547647854
11
414.8973480263
21
234.8893676638
0
LINE
8
11000_LEFT
62
7
6
CONTINUOUS
10
415.6858890431
20
234.7073186256
11
415.9691550976
21
234.6419215040
0
LINE
8
11000_LEFT
62
7
6
CONTINUOUS
10
416.7576961144
20
234.4598724658
11
417.0409621688
21
234.3944753442
0
LINE
8
11000_LEFT
62
7
6
CONTINUOUS
10
417.8295031856
20
234.2124263060
11
418.1127692401
21
234.1470291844
0
LINE
8
11000_LEFT
62
7
6
CONTINUOUS
10
418.9013102569
20
233.9649801463
11
419.1845763114
21
233.8995830247
0
LINE
8
11000_LEFT
62
7
6
CONTINUOUS
10
419.9731173282
20
233.7175339865
11
420.0631124410
21
233.6967569776
0
LINE
8
11000_LEFT
62
7
6
CONTINUOUS
10
416.4053921293
20
236.5168436571
11
408.5631124410
21
238.3273765830
0
LINE
8
11000_LEFT
62
7
6
CONTINUOUS
10
412.1755020647
20
286.6903463490
11
412.0666947456
21
286.3617323972
0
LINE
8
11000_LEFT
62
7
6
CONTINUOUS
10
409.8165263041
20
277.9836652776
11
409.7863342813
21
277.8961902462
0
LINE
8
11000_LEFT
62
7
6
CONTINUOUS
10
411.7552538152
20
285.5357237730
11
412.1755020647
21
286.6903463490
0
LINE
8
11000_LEFT
62
7
6
CONTINUOUS
10
409.7863342813
20
277.8961902462
11
409.7755879681
21
277.8668436571
0
LINE
8
11000_LEFT
62
7
6
CONTINUOUS
10
410.4694701639
20
232.1075291451
11
410.2124764014
21
231.7117934541
0
LINE
8
11000_LEFT
62
7
6
CONTINUOUS
10
411.5412772352
20
231.8600829853
11
411.2842834726
21
231.4643472944
0
LINE
8
11000_LEFT
62
7
6
CONTINUOUS
10
412.6130843065
20
231.6126368255
11
412.3560905439
21
231.2169011346
0
LINE
8
11000_LEFT
62
7
6
CONTINUOUS
10
409.7776418134
20
275.0168436571
11
411.0776418134
21
275.0168436571
0
LINE
8
11000_LEFT
62
7
6
CONTINUOUS
10
412.1755020647
20
275.1433409652
11
416.1756738716
21
275.1433409652
0
LINE
8
11000_LEFT
62
7
6
CONTINUOUS
10
409.7755879681
20
277.9168436571
11
409.7934628098
21
277.9168436571
0
LINE
8
11000_LEFT
62
7
6
CONTINUOUS
10
411.4903033686
20
277.9168436571
11
411.6755879681
21
277.9168436571
0
LINE
8
11000_LEFT
62
7
6
CONTINUOUS
10
416.6755879681
20
277.9168436571
11
420.0755879681
21
277.9168436571
0
LINE
8
11000_LEFT
62
7
6
CONTINUOUS
10
412.1755020647
20
278.0300923111
11
416.1756738716
21
278.0300923111
0
LINE
8
11000_LEFT
62
7
6
CONTINUOUS
10
412.1755020647
20
283.8035950030
11
416.1756738716
21
283.8035950030
0
LINE
8
11000_LEFT
62
7
6
CONTINUOUS
10
409.7755879681
20
283.9168436571
11
409.9068240057
21
283.9168436571
0
LINE
8
11000_LEFT
62
7
6
CONTINUOUS
10
416.6755879681
20
283.9168436571
11
420.0755879681
21
283.9168436571
0
LINE
8
10000_FRONT
62
7
6
CONTINUOUS
10
246.3884053805
20
285.4168436571
11
176.3884053805
21
285.4168436571
0
LINE
8
11000_LEFT
62
7
6
CONTINUOUS
10
412.1755020647
20
286.6903463490
11
416.1756738716
21
286.6903463490
0
LINE
8
11000_LEFT
62
7
6
CONTINUOUS
10
409.7755879681
20
286.7943923758
11
411.0755879681
21
286.7943923758
0
LINE
8
11000_LEFT
62
7
6
CONTINUOUS
10
408.1755879681
20
287.1668436571
11
409.7755879681
21
287.1668436571
0
LINE
8
10000_FRONT
62
7
6
CONTINUOUS
10
273.3884053805
20
289.1168436571
11
113.3884053805
21
289.1168436571
0
LINE
8
10000_FRONT
62
7
6
CONTINUOUS
10
273.3884053805
20
289.4168436571
11
113.3884053805
21
289.4168436571
0
LINE
8
10000_FRONT
62
7
6
CONTINUOUS
10
273.3884053805
20
289.7168436571
11
113.3884053805
21
289.7168436571
0
LINE
8
90000_FRAME
62
7
6
CONTINUOUS
10
482.9491908034
20
21.5500136921
11
484.6366013279
21
18.6029868605
0
LINE
8
90000_FRAME
62
7
6
CONTINUOUS
10
484.0662090379
20
16.7967446088
11
482.3550321680
21
19.8388368221
0
LINE
8
90000_FRAME
62
7
6
CONTINUOUS
10
472.3969334385
20
16.7492119180
11
471.0660180952
21
19.8388368221
0
LINE
8
11000_LEFT
62
7
6
CONTINUOUS
10
410.3840190844
20
279.7831436027
11
410.3190354208
21
279.0994052030
0
LINE
8
11000_LEFT
62
7
6
CONTINUOUS
10
410.3190354208
20
279.0994052030
11
410.2501083742
21
278.4417097966
0
LINE
8
11000_LEFT
62
7
6
CONTINUOUS
10
410.2501083742
20
278.4417097966
11
410.1792096363
21
277.8194818331
0
LINE
8
11000_LEFT
62
7
6
CONTINUOUS
10
411.5501083742
20
278.4417097966
11
411.4792096363
21
277.8194818331
0
LINE
8
11000_LEFT
62
7
6
CONTINUOUS
10
410.1792096363
20
277.8194818331
11
410.1083108983
21
277.2416375313
0
LINE
8
11000_LEFT
62
7
6
CONTINUOUS
10
411.4792096363
20
277.8194818331
11
411.4083108983
21
277.2416375313
0
LINE
8
11000_LEFT
62
7
6
CONTINUOUS
10
412.0666947456
20
283.1463670994
11
411.9837278930
21
282.5064631424
0
LINE
8
11000_LEFT
62
7
6
CONTINUOUS
10
410.1083108983
20
277.2416375313
11
410.0393838518
21
276.7164571138
0
LINE
8
11000_LEFT
62
7
6
CONTINUOUS
10
411.4083108983
20
277.2416375313
11
411.3393838518
21
276.7164571138
0
LINE
8
11000_LEFT
62
7
6
CONTINUOUS
10
410.0393838518
20
276.7164571138
11
409.9744001882
21
276.2514661561
0
LINE
8
11000_LEFT
62
7
6
CONTINUOUS
10
411.3393838518
20
276.7164571138
11
411.2744001882
21
276.2514661561
0
LINE
8
11000_LEFT
62
7
6
CONTINUOUS
10
410.4755477700
20
280.9168491992
11
410.4566995331
21
280.7838045256
0
LINE
8
11000_LEFT
62
7
6
CONTINUOUS
10
409.9744001882
20
276.2514661561
11
409.9153315988
21
275.8533277485
0
LINE
8
11000_LEFT
62
7
6
CONTINUOUS
10
411.2744001882
20
276.2514661561
11
411.2153315988
21
275.8533277485
0
LINE
8
11000_LEFT
62
7
6
CONTINUOUS
10
409.9153315988
20
275.8533277485
11
409.8641497752
21
275.5277470172
0
LINE
8
11000_LEFT
62
7
6
CONTINUOUS
10
411.2153315988
20
275.8533277485
11
411.1641497752
21
275.5277470172
0
LINE
8
11000_LEFT
62
7
6
CONTINUOUS
10
410.4566995331
20
280.7838045256
11
410.3896630080
21
280.3634046226
0
LINE
8
11000_LEFT
62
7
6
CONTINUOUS
10
412.1755020647
20
283.8035950030
11
412.0666947456
21
283.1463670994
0
LINE
8
11000_LEFT
62
7
6
CONTINUOUS
10
409.8641497752
20
275.5277470172
11
409.8228264088
21
275.2793893729
0
LINE
8
11000_LEFT
62
7
6
CONTINUOUS
10
411.1641497752
20
275.5277470172
11
411.1228264088
21
275.2793893729
0
LINE
8
11000_LEFT
62
7
6
CONTINUOUS
10
409.8228264088
20
275.2793893729
11
409.7933331911
21
275.1118136577
0
LINE
8
11000_LEFT
62
7
6
CONTINUOUS
10
411.1228264088
20
275.2793893729
11
411.0933331911
21
275.1118136577
0
LINE
8
11000_LEFT
62
7
6
CONTINUOUS
10
411.9837278930
20
286.0417804187
11
411.9268393862
21
285.7242628924
0
LINE
8
11000_LEFT
62
7
6
CONTINUOUS
10
411.9837278930
20
277.3815263808
11
411.9268393862
21
277.0640088545
0
LINE
8
11000_LEFT
62
7
6
CONTINUOUS
10
416.4243085305
20
284.7694732464
11
416.3674102663
21
284.4519896662
0
LINE
8
11000_LEFT
62
7
6
CONTINUOUS
10
416.4243085305
20
276.1092192086
11
416.3674102663
21
275.7917356284
0
LINE
8
11000_LEFT
62
7
6
CONTINUOUS
10
410.3896630080
20
280.3634046226
11
410.3144388156
21
279.9536549149
0
LINE
8
11000_LEFT
62
7
6
CONTINUOUS
10
409.7933331911
20
275.1118136577
11
409.7756803912
21
275.0168436571
0
LINE
8
11000_LEFT
62
7
6
CONTINUOUS
10
411.0933331911
20
275.1118136577
11
411.0756803912
21
275.0168436571
0
LINE
8
11000_LEFT
62
7
6
CONTINUOUS
10
410.3144388156
20
279.9536549149
11
410.2340973312
21
279.5624404886
0
LINE
8
11000_LEFT
62
7
6
CONTINUOUS
10
410.2340973312
20
279.5624404886
11
410.1517089300
21
279.1972897433
0
LINE
8
11000_LEFT
62
7
6
CONTINUOUS
10
409.9292103469
20
231.7771905757
11
410.0135669923
21
232.1425793500
0
LINE
8
11000_LEFT
62
7
6
CONTINUOUS
10
411.3143041127
20
235.3317144904
11
411.3986607581
21
235.6971032647
0
LINE
8
11000_LEFT
62
7
6
CONTINUOUS
10
411.0010174182
20
231.5297444160
11
411.0853740635
21
231.8951331903
0
LINE
8
11000_LEFT
62
7
6
CONTINUOUS
10
410.1517089300
20
279.1972897433
11
410.0703439873
21
278.8652295173
0
LINE
8
11000_LEFT
62
7
6
CONTINUOUS
10
412.0666947456
20
286.3617323972
11
411.9837278930
21
286.0417804187
0
LINE
8
11000_LEFT
62
7
6
CONTINUOUS
10
412.0666947456
20
277.7014783593
11
411.9837278930
21
277.3815263808
0
LINE
8
11000_LEFT
62
7
6
CONTINUOUS
10
416.3674102663
20
284.4519896662
11
416.2844645079
21
284.1321526817
0
LINE
8
11000_LEFT
62
7
6
CONTINUOUS
10
416.3674102663
20
275.7917356284
11
416.2844645079
21
275.4718986439
0
LINE
8
11000_LEFT
62
7
6
CONTINUOUS
10
410.0703439873
20
278.8652295173
11
409.9930728781
21
278.5726498665
0
LINE
8
11000_LEFT
62
7
6
CONTINUOUS
10
409.9930728781
20
278.5726498665
11
409.9229659777
21
278.3251810957
0
LINE
8
11000_LEFT
62
7
6
CONTINUOUS
10
409.9229659777
20
278.3251810957
11
409.8630936613
21
278.1275854110
0
LINE
8
11000_LEFT
62
7
6
CONTINUOUS
10
409.8630936613
20
278.1275854110
11
409.8165263041
21
277.9836652776
0
LINE
8
11000_LEFT
62
7
6
CONTINUOUS
10
412.1755020647
20
278.0300923111
11
412.0666947456
21
277.7014783593
0
LINE
8
11000_LEFT
62
7
6
CONTINUOUS
10
416.2844645079
20
284.1321526817
11
416.1756738716
21
283.8035950030
0
LINE
8
11000_LEFT
62
7
6
CONTINUOUS
10
416.2844645079
20
275.4718986439
11
416.1756738716
21
275.1433409652
0
LINE
8
11000_LEFT
62
7
6
CONTINUOUS
10
416.1756738716
20
275.1433409652
11
416.6755879681
21
276.5168436571
0
LINE
8
11000_LEFT
62
7
6
CONTINUOUS
10
413.6848913777
20
231.3651906657
11
413.4278976151
21
230.9694549748
0
LINE
8
11000_LEFT
62
7
6
CONTINUOUS
10
414.7566984490
20
231.1177445060
11
414.4997046864
21
230.7220088150
0
LINE
8
11000_LEFT
62
7
6
CONTINUOUS
10
415.8285055203
20
230.8702983462
11
415.5715117577
21
230.4745626553
0
LINE
8
11000_LEFT
62
7
6
CONTINUOUS
10
416.9003125915
20
230.6228521864
11
416.6433188289
21
230.2271164955
0
LINE
8
11000_LEFT
62
7
6
CONTINUOUS
10
417.9721196628
20
230.3754060266
11
417.7151259002
21
229.9796703357
0
LINE
8
10000_FRONT
62
7
6
CONTINUOUS
10
119.5870898187
20
308.0918436571
11
127.1897209422
21
308.0918436571
0
LINE
8
10000_FRONT
62
7
6
CONTINUOUS
10
259.5870898187
20
308.0918436571
11
267.1897209422
21
308.0918436571
0
LINE
8
10000_FRONT
62
7
6
CONTINUOUS
10
273.3884053805
20
311.1918436571
11
268.4795742050
21
311.1918436571
0
LINE
8
10000_FRONT
62
7
6
CONTINUOUS
10
258.2972365559
20
311.1918436571
11
128.4795742050
21
311.1918436571
0
LINE
8
10000_FRONT
62
7
6
CONTINUOUS
10
118.2972365559
20
311.1918436571
11
113.3884053805
21
311.1918436571
0
LINE
8
10000_FRONT
62
7
6
CONTINUOUS
10
273.3884053805
20
311.4918436571
11
268.4884053805
21
311.4918436571
0
LINE
8
10000_FRONT
62
7
6
CONTINUOUS
10
258.2884053805
20
311.4918436571
11
128.4884053805
21
311.4918436571
0
LINE
8
10000_FRONT
62
7
6
CONTINUOUS
10
118.2884053805
20
311.4918436571
11
113.3884053805
21
311.4918436571
0
LINE
8
10000_FRONT
62
7
6
CONTINUOUS
10
273.3884053805
20
311.7918436571
11
268.4795742050
21
311.7918436571
0
LINE
8
10000_FRONT
62
7
6
CONTINUOUS
10
258.2972365559
20
311.7918436571
11
128.4795742050
21
311.7918436571
0
LINE
8
10000_FRONT
62
7
6
CONTINUOUS
10
118.2972365559
20
311.7918436571
11
113.3884053805
21
311.7918436571
0
LINE
8
10000_FRONT
62
7
6
CONTINUOUS
10
267.1897209422
20
314.8918436571
11
259.5870898187
21
314.8918436571
0
LINE
8
10000_FRONT
62
7
6
CONTINUOUS
10
127.1897209422
20
314.8918436571
11
119.5870898187
21
314.8918436571
0
LINE
8
11000_LEFT
62
7
6
CONTINUOUS
10
409.7755879681
20
283.9552374863
11
410.0012605453
21
283.8892157247
0
LINE
8
11000_LEFT
62
7
6
CONTINUOUS
10
420.6755879681
20
228.9686836799
11
420.2088145304
21
229.4039569524
0
LINE
8
90000_FRAME
62
7
6
CONTINUOUS
10
471.8265411485
20
21.5500136921
11
473.0623911102
21
18.6505195513
0
LINE
8
11000_LEFT
62
7
6
CONTINUOUS
10
411.8976672337
20
276.4272794606
11
411.9268674058
21
276.1092192086
0
LINE
8
11000_LEFT
62
7
6
CONTINUOUS
10
411.8976672337
20
285.0875334984
11
411.9268674058
21
284.7694732464
0
LINE
8
11000_LEFT
62
7
6
CONTINUOUS
10
416.4243365501
20
277.0640088545
11
416.4535186271
21
276.7459394596
0
LINE
8
11000_LEFT
62
7
6
CONTINUOUS
10
416.4243365501
20
285.7242628924
11
416.4535186271
21
285.4061934975
0
LINE
8
11000_LEFT
62
7
6
CONTINUOUS
10
411.9268674058
20
279.9618487979
11
411.9837656700
21
279.3268816375
0
LINE
8
11000_LEFT
62
7
6
CONTINUOUS
10
416.3674480433
20
282.5064631424
11
416.4243365501
21
281.8714280898
0
LINE
8
11000_LEFT
62
7
6
CONTINUOUS
10
410.5253236375
20
285.0022368114
11
410.5628679286
21
284.4643264021
0
LINE
8
11000_LEFT
62
7
6
CONTINUOUS
10
411.8253236375
20
285.0022368114
11
411.8628679286
21
284.4643264021
0
LINE
8
11000_LEFT
62
7
6
CONTINUOUS
10
410.5616040191
20
282.7639532029
11
410.5671221793
21
282.6661704970
0
LINE
8
11000_LEFT
62
7
6
CONTINUOUS
10
411.8976672337
20
280.5979693019
11
411.9268674058
21
279.9618487979
0
LINE
8
11000_LEFT
62
7
6
CONTINUOUS
10
416.4243365501
20
281.8714280898
11
416.4535186271
21
281.2352893000
0
LINE
8
11000_LEFT
62
7
6
CONTINUOUS
10
410.5628679286
20
284.4643264021
11
410.5806953054
21
283.8755823213
0
LINE
8
11000_LEFT
62
7
6
CONTINUOUS
10
411.8628679286
20
284.4643264021
11
411.8806953054
21
283.8755823213
0
LINE
8
11000_LEFT
62
7
6
CONTINUOUS
10
410.5806953054
20
283.8755823213
11
410.5828313044
21
283.5647588203
0
LINE
8
11000_LEFT
62
7
6
CONTINUOUS
10
411.8806953054
20
283.8755823213
11
411.8828313044
21
283.5647588203
0
LINE
8
11000_LEFT
62
7
6
CONTINUOUS
10
405.6755879681
20
332.6679144847
11
405.6755879681
21
231.7168436571
0
LINE
8
11000_LEFT
62
7
6
CONTINUOUS
10
405.6755879681
20
231.1168436571
11
405.6755879681
21
230.5168436571
0
LINE
8
11000_LEFT
62
7
6
CONTINUOUS
10
405.6755879681
20
229.9168436571
11
405.6755879681
21
229.3168436571
0
LINE
8
11000_LEFT
62
7
6
CONTINUOUS
10
405.6755879681
20
228.7168436571
11
405.6755879681
21
228.1168436571
0
LINE
8
11000_LEFT
62
7
6
CONTINUOUS
10
405.6755879681
20
227.5168436571
11
405.6755879681
21
226.9168436571
0
LINE
8
11000_LEFT
62
7
6
CONTINUOUS
10
405.6755879681
20
226.3168436571
11
405.6755879681
21
222.4168436571
0
LINE
8
11000_LEFT
62
7
6
CONTINUOUS
10
408.1255879681
20
224.7168436571
11
408.1255879681
21
227.6776191098
0
LINE
8
11000_LEFT
62
7
6
CONTINUOUS
10
408.1755879681
20
238.8145616154
11
408.1755879681
21
254.0418436571
0
LINE
8
11000_LEFT
62
7
6
CONTINUOUS
10
408.1755879681
20
254.6418436571
11
408.1755879681
21
289.1168436571
0
LINE
8
11000_LEFT
62
7
6
CONTINUOUS
10
408.1755879681
20
289.7168436571
11
408.1755879681
21
311.1918436571
0
LINE
8
11000_LEFT
62
7
6
CONTINUOUS
10
408.1755879681
20
311.7918436571
11
408.1755879681
21
332.6679144847
0
LINE
8
11000_LEFT
62
7
6
CONTINUOUS
10
409.7755879681
20
287.1668436571
11
409.7755879681
21
274.6668436571
0
LINE
8
11000_LEFT
62
7
6
CONTINUOUS
10
410.1255879681
20
222.4168436571
11
410.1255879681
21
224.1168436571
0
LINE
8
11000_LEFT
62
7
6
CONTINUOUS
10
411.6755879681
20
279.6944339543
11
411.6755879681
21
276.5168774779
0
LINE
8
11000_LEFT
62
7
6
CONTINUOUS
10
411.8976573092
20
281.2352893000
11
411.8976672337
21
280.5979693019
0
LINE
8
11000_LEFT
62
7
6
CONTINUOUS
10
411.8976573092
20
276.7459394596
11
411.8976672337
21
276.4272794606
0
LINE
8
11000_LEFT
62
7
6
CONTINUOUS
10
411.8976573092
20
285.4061934975
11
411.8976672337
21
285.0875334984
0
LINE
8
11000_LEFT
62
7
6
CONTINUOUS
10
416.2255879681
20
222.4168436571
11
416.2255879681
21
224.1168436571
0
LINE
8
11000_LEFT
62
7
6
CONTINUOUS
10
416.4535186271
20
285.4061934975
11
416.4535087026
21
285.0875334984
0
LINE
8
11000_LEFT
62
7
6
CONTINUOUS
10
416.4535186271
20
276.7459394596
11
416.4535087026
21
276.4272794606
0
LINE
8
11000_LEFT
62
7
6
CONTINUOUS
10
416.4535186271
20
281.2352893000
11
416.4535087026
21
280.5979693019
0
LINE
8
11000_LEFT
62
7
6
CONTINUOUS
10
416.6755879681
20
285.3168098363
11
416.6755879681
21
276.5168774779
0
LINE
8
11000_LEFT
62
7
6
CONTINUOUS
10
418.1755879681
20
337.8640669074
11
418.1755879681
21
329.4168436571
0
LINE
8
11000_LEFT
62
7
6
CONTINUOUS
10
418.2255879681
20
227.9168436571
11
418.2255879681
21
224.7168436571
0
LINE
8
11000_LEFT
62
7
6
CONTINUOUS
10
420.0755879681
20
283.9168436571
11
420.0755879681
21
277.9168436571
0
LINE
8
11000_LEFT
62
7
6
CONTINUOUS
10
420.6755879681
20
283.3168437525
11
420.6755879681
21
278.5169090740
0
LINE
8
11000_LEFT
62
7
6
CONTINUOUS
10
420.6755879681
20
222.4168436571
11
420.6755879681
21
228.9686836799
0
LINE
8
11000_LEFT
62
7
6
CONTINUOUS
10
420.6755879681
20
234.1839420100
11
420.6755879681
21
236.0168436571
0
LINE
8
11000_LEFT
62
7
6
CONTINUOUS
10
420.6755879681
20
329.9168436571
11
420.6755879681
21
342.4168436571
0
LINE
8
91000_TIP
62
7
6
CONTINUOUS
10
422.7797812733
20
20.8043438692
11
422.7797812733
21
15.8043439713
0
LINE
8
11000_LEFT
62
7
6
CONTINUOUS
10
410.5828313044
20
283.5647588203
11
410.5807774592
21
283.2444409802
0
LINE
8
11000_LEFT
62
7
6
CONTINUOUS
10
411.8828313044
20
283.5647588203
11
411.8807774592
21
283.2444409802
0
LINE
8
11000_LEFT
62
7
6
CONTINUOUS
10
410.5807774592
20
283.2444409802
11
410.5650860815
21
282.5799463216
0
LINE
8
11000_LEFT
62
7
6
CONTINUOUS
10
411.8807774592
20
283.2444409802
11
411.8650860815
21
282.5799463216
0
LINE
8
11000_LEFT
62
7
6
CONTINUOUS
10
410.5650860815
20
282.5799463216
11
410.5355928637
21
281.8916202252
0
LINE
8
11000_LEFT
62
7
6
CONTINUOUS
10
411.8650860815
20
282.5799463216
11
411.8355928637
21
281.8916202252
0
LINE
8
11000_LEFT
62
7
6
CONTINUOUS
10
411.9268393862
20
281.8714280898
11
411.8976573092
21
281.2352893000
0
LINE
8
11000_LEFT
62
7
6
CONTINUOUS
10
416.4535087026
20
280.5979693019
11
416.4243085305
21
279.9618487979
0
LINE
8
11000_LEFT
62
7
6
CONTINUOUS
10
410.5355928637
20
281.8916202252
11
410.4942694973
21
281.1893260631
0
LINE
8
11000_LEFT
62
7
6
CONTINUOUS
10
411.8355928637
20
281.8916202252
11
411.7942694973
21
281.1893260631
0
LINE
8
11000_LEFT
62
7
6
CONTINUOUS
10
410.4942694973
20
281.1893260631
11
410.4756056751
21
280.9168423949
0
LINE
8
11000_LEFT
62
7
6
CONTINUOUS
10
411.7942694973
20
281.1893260631
11
411.7756056751
21
280.9168423949
0
LINE
8
11000_LEFT
62
7
6
CONTINUOUS
10
410.4756056751
20
280.9168423949
11
410.4430876738
21
280.4831273630
0
LINE
8
11000_LEFT
62
7
6
CONTINUOUS
10
411.7756056751
20
280.9168423949
11
411.7430876738
21
280.4831273630
0
LINE
8
11000_LEFT
62
7
6
CONTINUOUS
10
410.4430876738
20
280.4831273630
11
410.3840190844
21
279.7831436027
0
LINE
8
11000_LEFT
62
7
6
CONTINUOUS
10
411.7430876738
20
280.4831273630
11
411.6840190844
21
279.7831436027
0
LINE
8
11000_LEFT
62
7
6
CONTINUOUS
10
411.9837278930
20
282.5064631424
11
411.9268393862
21
281.8714280898
0
LINE
8
11000_LEFT
62
7
6
CONTINUOUS
10
416.4243085305
20
279.9618487979
11
416.3674102663
21
279.3268816375
0
LINE
8
11000_LEFT
62
7
6
CONTINUOUS
10
411.9268393862
20
285.7242628924
11
411.8976573092
21
285.4061934975
0
LINE
8
11000_LEFT
62
7
6
CONTINUOUS
10
411.9268393862
20
277.0640088545
11
411.8976573092
21
276.7459394596
0
LINE
8
11000_LEFT
62
7
6
CONTINUOUS
10
416.4535087026
20
285.0875334984
11
416.4243085305
21
284.7694732464
0
LINE
8
11000_LEFT
62
7
6
CONTINUOUS
10
416.4535087026
20
276.4272794606
11
416.4243085305
21
276.1092192086
0
LINE
8
11000_LEFT
62
7
6
CONTINUOUS
10
411.6840190844
20
279.7831436027
11
411.6190354208
21
279.0994052030
0
LINE
8
11000_LEFT
62
7
6
CONTINUOUS
10
411.6190354208
20
279.0994052030
11
411.5501083742
21
278.4417097966
0
LINE
8
11000_LEFT
62
7
6
CONTINUOUS
10
416.3674102663
20
279.3268816375
11
416.2844645079
21
278.6872076685
0
LINE
8
11000_LEFT
62
7
6
CONTINUOUS
10
416.2844645079
20
278.6872076685
11
416.1756738716
21
278.0300923111
0
LINE
8
11000_LEFT
62
7
6
CONTINUOUS
10
412.3861111839
20
235.0842683306
11
412.4704678293
21
235.4496571049
0
LINE
8
11000_LEFT
62
7
6
CONTINUOUS
10
412.0728244894
20
231.2822982562
11
412.1571811348
21
231.6476870305
0
LINE
8
11000_LEFT
62
7
6
CONTINUOUS
10
413.4579182552
20
234.8368221709
11
413.5422749006
21
235.2022109452
0
LINE
8
11000_LEFT
62
7
6
CONTINUOUS
10
413.1446315607
20
231.0348520964
11
413.2289882061
21
231.4002408707
0
LINE
8
11000_LEFT
62
7
6
CONTINUOUS
10
414.5297253265
20
234.5893760111
11
414.6140819718
21
234.9547647854
0
LINE
8
11000_LEFT
62
7
6
CONTINUOUS
10
414.2164386319
20
230.7874059366
11
414.3007952773
21
231.1527947109
0
LINE
8
11000_LEFT
62
7
6
CONTINUOUS
10
415.6015323977
20
234.3419298513
11
415.6858890431
21
234.7073186256
0
LINE
8
11000_LEFT
62
7
6
CONTINUOUS
10
415.2882457032
20
230.5399597769
11
415.3726023486
21
230.9053485512
0
LINE
8
11000_LEFT
62
7
6
CONTINUOUS
10
416.6733394690
20
234.0944836915
11
416.7576961144
21
234.4598724658
0
LINE
8
11000_LEFT
62
7
6
CONTINUOUS
10
416.3600527745
20
230.2925136171
11
416.4444094199
21
230.6579023914
0
LINE
8
11000_LEFT
62
7
6
CONTINUOUS
10
417.7451465403
20
233.8470375318
11
417.8295031856
21
234.2124263060
0
LINE
8
11000_LEFT
62
7
6
CONTINUOUS
10
417.4318598457
20
230.0450674573
11
417.5162164911
21
230.4104562316
0
LINE
8
11000_LEFT
62
7
6
CONTINUOUS
10
418.8169536115
20
233.5995913720
11
418.9013102569
21
233.9649801463
0
LINE
8
11000_LEFT
62
7
6
CONTINUOUS
10
418.5036669170
20
229.7976212975
11
418.5880235624
21
230.1630100718
0
LINE
8
11000_LEFT
62
7
6
CONTINUOUS
10
419.8887606828
20
233.3521452122
11
419.9731173282
21
233.7175339865
0
LINE
8
10000_FRONT
62
7
6
CONTINUOUS
10
113.3884053805
20
328.9168436571
11
273.3884053805
21
328.9168436571
0
LINE
8
11000_LEFT
62
7
6
CONTINUOUS
10
418.6755879681
20
328.9168436571
11
419.6755879681
21
328.9168436571
0
LINE
8
10000_FRONT
62
7
6
CONTINUOUS
10
113.3884053805
20
329.9168436571
11
273.3884053805
21
329.9168436571
0
LINE
8
11000_LEFT
62
7
6
CONTINUOUS
10
409.7755879681
20
286.7943923758
11
409.9728392658
21
286.6908365103
0
LINE
8
11000_LEFT
62
7
6
CONTINUOUS
10
411.0755879681
20
286.7943923758
11
411.2728392658
21
286.6908365103
0
LINE
8
11000_LEFT
62
7
6
CONTINUOUS
10
410.0012605453
20
283.8892157247
11
410.1849713280
21
283.7659946309
0
LINE
8
11000_LEFT
62
7
6
CONTINUOUS
10
408.1755879681
20
254.0418436571
11
407.8755879681
21
254.3418436571
0
LINE
8
11000_LEFT
62
7
6
CONTINUOUS
10
410.3831975463
20
285.8955635286
11
410.4660907405
21
285.4816055591
0
LINE
8
11000_LEFT
62
7
6
CONTINUOUS
10
411.9268674058
20
276.1092192086
11
411.9837656700
21
275.7917356284
0
LINE
8
11000_LEFT
62
7
6
CONTINUOUS
10
411.9268674058
20
284.7694732464
11
411.9837656700
21
284.4519896662
0
LINE
8
11000_LEFT
62
7
6
CONTINUOUS
10
412.0667114284
20
278.6872076685
11
412.1755020647
21
278.0300923111
0
LINE
8
11000_LEFT
62
7
6
CONTINUOUS
10
410.5150366619
20
283.0820571439
11
410.5616040191
21
282.7639532029
0
LINE
8
11000_LEFT
62
7
6
CONTINUOUS
10
411.9837656700
20
279.3268816375
11
412.0667114284
21
278.6872076685
0
LINE
8
11000_LEFT
62
7
6
CONTINUOUS
10
410.4660907405
20
285.4816055591
11
410.5253236375
21
285.0022368114
0
LINE
8
11000_LEFT
62
7
6
CONTINUOUS
10
411.7660907405
20
285.4816055591
11
411.8253236375
21
285.0022368114
0
LINE
8
11000_LEFT
62
7
6
CONTINUOUS
10
411.6819268125
20
235.6317061431
11
411.7394321676
21
235.1633626098
0
LINE
8
11000_LEFT
62
7
6
CONTINUOUS
10
412.7537338838
20
235.3842599833
11
412.8112392389
21
234.9159164500
0
LINE
8
11000_LEFT
62
7
6
CONTINUOUS
10
413.8255409550
20
235.1368138236
11
413.8830463101
21
234.6684702902
0
LINE
8
11000_LEFT
62
7
6
CONTINUOUS
10
414.8973480263
20
234.8893676638
11
414.9548533814
21
234.4210241304
0
LINE
8
11000_LEFT
62
7
6
CONTINUOUS
10
415.9691550976
20
234.6419215040
11
416.0266604527
21
234.1735779707
0
LINE
8
11000_LEFT
62
7
6
CONTINUOUS
10
417.0409621688
20
234.3944753442
11
417.0984675239
21
233.9261318109
0
LINE
8
11000_LEFT
62
7
6
CONTINUOUS
10
418.1127692401
20
234.1470291844
11
418.1702745952
21
233.6786856511
0
LINE
8
11000_LEFT
62
7
6
CONTINUOUS
10
419.1845763114
20
233.8995830247
11
419.2420816665
21
233.4312394913
0
LINE
8
91000_TIP
62
7
6
CONTINUOUS
10
432.7797810691
20
23.3043438181
11
432.7797810691
21
13.3043440223
0
LINE
8
91000_TIP
62
7
6
CENTER
10
439.2797809364
20
12.5828627138
11
439.2797809364
21
23.8662487138
0
LINE
8
10000_FRONT
62
7
6
CONTINUOUS
10
273.3884053805
20
342.4168436571
11
113.3884053805
21
342.4168436571
0
LINE
8
10000_FRONT
62
7
6
CONTINUOUS
10
273.3884053805
20
343.9168436571
11
113.3884053805
21
343.9168436571
0
LINE
8
11000_LEFT
62
7
6
CONTINUOUS
10
408.1755879681
20
289.1168436571
11
407.8755879681
21
289.4168436571
0
LINE
8
11000_LEFT
62
7
6
CONTINUOUS
10
420.0755879681
20
283.9168436571
11
420.6755879681
21
283.3168436571
0
LINE
8
11000_LEFT
62
7
6
CONTINUOUS
10
409.9728392658
20
286.6908365103
11
410.1385435004
21
286.5045421855
0
LINE
8
11000_LEFT
62
7
6
CONTINUOUS
10
411.2728392658
20
286.6908365103
11
411.4385435004
21
286.5045421855
0
LINE
8
11000_LEFT
62
7
6
CONTINUOUS
10
410.1849713280
20
283.7659946309
11
410.3297906916
21
283.5879454302
0
LINE
8
11000_LEFT
62
7
6
CONTINUOUS
10
410.1385435004
20
286.5045421855
11
410.2746723634
21
286.2381789070
0
LINE
8
11000_LEFT
62
7
6
CONTINUOUS
10
411.4385435004
20
286.5045421855
11
411.5746723634
21
286.2381789070
0
LINE
8
11000_LEFT
62
7
6
CONTINUOUS
10
410.3297906916
20
283.5879454302
11
410.4387890111
21
283.3584944419
0
LINE
8
11000_LEFT
62
7
6
CONTINUOUS
10
411.6755879681
20
276.5168436571
11
412.1755020647
21
275.1433409652
0
LINE
8
11000_LEFT
62
7
6
CONTINUOUS
10
416.1756738716
20
286.6903463490
11
416.6755879681
21
285.3168436571
0
LINE
8
11000_LEFT
62
7
6
CONTINUOUS
10
412.0667114284
20
275.4718986439
11
412.1755020647
21
275.1433409652
0
LINE
8
11000_LEFT
62
7
6
CONTINUOUS
10
412.0667114284
20
284.1321526817
11
412.1755020647
21
283.8035950030
0
LINE
8
11000_LEFT
62
7
6
CONTINUOUS
10
416.1756738716
20
278.0300923111
11
416.2844811907
21
277.7014783593
0
LINE
8
11000_LEFT
62
7
6
CONTINUOUS
10
416.1756738716
20
286.6903463490
11
416.2844811907
21
286.3617323972
0
LINE
8
11000_LEFT
62
7
6
CONTINUOUS
10
410.2746723634
20
286.2381789070
11
410.3831975463
21
285.8955635286
0
LINE
8
11000_LEFT
62
7
6
CONTINUOUS
10
411.5746723634
20
286.2381789070
11
411.6831975463
21
285.8955635286
0
LINE
8
11000_LEFT
62
7
6
CONTINUOUS
10
410.4387890111
20
283.3584944419
11
410.5150366619
21
283.0820571439
0
LINE
8
11000_LEFT
62
7
6
CONTINUOUS
10
411.9837656700
20
275.7917356284
11
412.0667114284
21
275.4718986439
0
LINE
8
11000_LEFT
62
7
6
CONTINUOUS
10
411.9837656700
20
284.4519896662
11
412.0667114284
21
284.1321526817
0
LINE
8
11000_LEFT
62
7
6
CONTINUOUS
10
416.2844811907
20
277.7014783593
11
416.3674480433
21
277.3815263808
0
LINE
8
11000_LEFT
62
7
6
CONTINUOUS
10
416.2844811907
20
286.3617323972
11
416.3674480433
21
286.0417804187
0
LINE
8
11000_LEFT
62
7
6
CONTINUOUS
10
411.6831975463
20
285.8955635286
11
411.7660907405
21
285.4816055591
0
LINE
8
11000_LEFT
62
7
6
CONTINUOUS
10
416.3674480433
20
277.3815263808
11
416.4243365501
21
277.0640088545
0
LINE
8
11000_LEFT
62
7
6
CONTINUOUS
10
416.3674480433
20
286.0417804187
11
416.4243365501
21
285.7242628924
0
LINE
8
11000_LEFT
62
7
6
CONTINUOUS
10
416.1756738716
20
283.8035950030
11
416.2844811907
21
283.1463670994
0
LINE
8
11000_LEFT
62
7
6
CONTINUOUS
10
416.2844811907
20
283.1463670994
11
416.3674480433
21
282.5064631424
0
LINE
8
90000_FRAME
62
7
6
CONTINUOUS
10
449.0000000000
20
10.0000000000
11
449.0000000000
21
28.0000000000
0
LINE
8
90000_FRAME
62
7
6
CONTINUOUS
10
458.8025838603
20
16.8918099905
11
458.8025838603
21
17.8424638071
0
LINE
8
90000_FRAME
62
7
6
CONTINUOUS
10
462.1298722186
20
20.5518271846
11
462.1298722186
21
21.5024810013
0
LINE
8
90000_FRAME
62
7
6
CONTINUOUS
10
463.2231241078
20
21.5500136921
11
463.2231241078
21
16.7967446088
0
LINE
8
90000_FRAME
62
7
6
CONTINUOUS
10
464.6491048328
20
21.5500136921
11
464.6491048328
21
16.7967446088
0
LINE
8
11000_LEFT
62
7
6
CONTINUOUS
10
408.1755879681
20
311.1918436571
11
407.8755879681
21
311.4918436571
0
LINE
8
11000_LEFT
62
7
6
CONTINUOUS
10
417.6895244171
20
342.2128458082
11
417.8349194696
21
341.7421686682
0
LINE
8
90000_FRAME
62
7
6
CONTINUOUS
10
465.7423567219
20
21.5500136921
11
465.7423567219
21
16.7967446088
0
LINE
8
90000_FRAME
62
7
6
CONTINUOUS
10
467.1208047561
20
20.6706589117
11
467.1208047561
21
19.6011733680
0
LINE
8
90000_FRAME
62
7
6
CONTINUOUS
10
467.1208047561
20
18.8168839692
11
467.1208047561
21
17.6998657346
0
LINE
8
90000_FRAME
62
7
6
CONTINUOUS
10
468.9745796985
20
19.6011733680
11
468.9745796985
21
18.8168839692
0
LINE
8
90000_FRAME
62
7
6
CONTINUOUS
10
469.2597758435
20
21.5500136921
11
469.2597758435
21
20.6706589117
0
LINE
8
90000_FRAME
62
7
6
CONTINUOUS
10
469.3073085344
20
17.6998657346
11
469.3073085344
21
16.7967446088
0
LINE
8
90000_FRAME
62
7
6
CONTINUOUS
10
470.1153642785
20
16.7967446088
11
470.1153642785
21
21.5500136921
0
LINE
8
90000_FRAME
62
7
6
CONTINUOUS
10
471.0660180952
20
16.7967446088
11
471.0660180952
21
19.8388368221
0
LINE
8
90000_FRAME
62
7
6
CONTINUOUS
10
474.5834372168
20
19.8863695130
11
474.5834372168
21
16.7967446088
0
LINE
8
90000_FRAME
62
7
6
CONTINUOUS
10
475.9618852509
20
21.5500136921
11
475.9618852509
21
16.7967446088
0
LINE
8
90000_FRAME
62
7
6
CONTINUOUS
10
477.0551371401
20
21.5500136921
11
477.0551371401
21
16.7967446088
0
LINE
8
90000_FRAME
62
7
6
CONTINUOUS
10
478.4335851743
20
20.6706589117
11
478.4335851743
21
19.6011733680
0
LINE
8
90000_FRAME
62
7
6
CONTINUOUS
10
478.4335851743
20
18.8168839692
11
478.4335851743
21
17.6998657346
0
LINE
8
90000_FRAME
62
7
6
CONTINUOUS
10
480.2873601167
20
19.6011733680
11
480.2873601167
21
18.8168839692
0
LINE
8
90000_FRAME
62
7
6
CONTINUOUS
10
480.5725562617
20
21.5500136921
11
480.5725562617
21
20.6706589117
0
LINE
8
90000_FRAME
62
7
6
CONTINUOUS
10
480.6200889526
20
17.6998657346
11
480.6200889526
21
16.7967446088
0
LINE
8
90000_FRAME
62
7
6
CONTINUOUS
10
481.4043783513
20
16.7967446088
11
481.4043783513
21
21.5500136921
0
LINE
8
90000_FRAME
62
7
6
CONTINUOUS
10
482.3550321680
20
16.7967446088
11
482.3550321680
21
19.8388368221
0
LINE
8
90000_FRAME
62
7
6
CONTINUOUS
10
484.6366013279
20
21.5500136921
11
484.6366013279
21
18.6029868605
0
LINE
8
90000_FRAME
62
7
6
CONTINUOUS
10
485.5872551446
20
21.5500136921
11
485.5872551446
21
16.7967446088
0
LINE
8
90000_FRAME
62
7
6
CONTINUOUS
10
486.3953108887
20
16.8918099905
11
486.3953108887
21
17.8424638071
0
LINE
8
90000_FRAME
62
7
6
CONTINUOUS
10
489.7225992470
20
20.5518271846
11
489.7225992470
21
21.5024810013
0
LINE
8
90000_FRAME
62
7
6
CONTINUOUS
10
499.0000000000
20
10.0000000000
11
499.0000000000
21
28.0000000000
0
LINE
8
90000_FRAME
62
7
6
CONTINUOUS
10
589.0000000000
20
415.0000000000
11
5.0000000000
21
415.0000000000
0
LINE
8
90000_FRAME
62
7
6
CONTINUOUS
10
594.0000000000
20
420.0000000000
11
0.0000000000
21
420.0000000000
0
LINE
8
90000_FRAME
62
7
6
CONTINUOUS
10
541.5000000000
20
10.0000000000
11
541.5000000000
21
16.0000000000
0
LINE
8
90000_FRAME
62
7
6
CONTINUOUS
10
474.2507083810
20
21.5500136921
11
473.0623911102
21
18.6505195513
0
LINE
8
90000_FRAME
62
7
6
CONTINUOUS
10
474.5834372168
20
19.8863695130
11
473.2525218735
21
16.7492119180
0
LINE
8
90000_FRAME
62
7
6
CONTINUOUS
10
458.9944124496
20
20.9692081512
11
459.2684782743
21
21.2432812288
0
LINE
8
90000_FRAME
62
7
6
CONTINUOUS
10
584.0000000000
20
10.0000000000
11
584.0000000000
21
28.0000000000
0
LINE
8
90000_FRAME
62
7
6
CONTINUOUS
10
589.0000000000
20
5.0000000000
11
589.0000000000
21
415.0000000000
0
LINE
8
90000_FRAME
62
7
6
CONTINUOUS
10
594.0000000000
20
0.0000000000
11
594.0000000000
21
420.0000000000
0
ARC
8
90000_FRAME
62
7
6
CONTINUOUS
10
488.0999520137
20
18.7539031539
40
1.1116193606
50
277.7099956934
51
295.6884927746
0
ARC
8
90000_FRAME
62
7
6
CONTINUOUS
10
488.3842619965
20
18.0290773902
40
0.3401689265
50
305.5032212550
51
72.4652898523
0
ARC
8
90000_FRAME
62
7
6
CONTINUOUS
10
487.8182681884
20
21.4307842998
40
4.7567946411
50
252.5939200548
51
280.9816604256
0
ARC
8
90000_FRAME
62
7
6
CONTINUOUS
10
488.2731035514
20
18.8127705633
40
2.1007265953
50
282.4058358520
51
311.8644433928
0
ARC
8
90000_FRAME
62
7
6
CONTINUOUS
10
487.9995392043
20
20.4211122848
40
0.3029626476
50
154.4400348282
51
221.8201698801
0
ARC
8
90000_FRAME
62
7
6
CONTINUOUS
10
488.0787603557
20
20.3418911335
40
0.4103089737
50
102.8287828681
51
149.2259639003
0
ARC
8
90000_FRAME
62
7
6
CONTINUOUS
10
488.4957871914
20
18.5995558036
40
2.2018365570
50
84.0400061857
51
103.3427657871
0
ARC
8
90000_FRAME
62
7
6
CONTINUOUS
10
488.1548233666
20
16.1821918797
40
4.6423737365
50
70.2625858546
51
82.9524186380
0
ARC
8
90000_FRAME
62
7
6
CONTINUOUS
10
487.6408051645
20
20.8538147693
40
3.2587559909
50
247.5300206145
51
280.7579522143
0
ARC
8
90000_FRAME
62
7
6
CONTINUOUS
10
481.2558386924
20
2.6022948089
40
17.3316084133
50
65.3414674650
51
67.3997770736
0
ARC
8
90000_FRAME
62
7
6
CONTINUOUS
10
492.0517010978
20
28.3947211720
40
10.6291642039
50
242.8620101252
51
247.1042029186
0
ARC
8
90000_FRAME
62
7
6
CONTINUOUS
10
488.1967998713
20
20.8607896750
40
2.1662916292
50
227.3119280794
51
242.7040315235
0
ARC
8
90000_FRAME
62
7
6
CONTINUOUS
10
487.5927690616
20
20.1551120342
40
1.2385217340
50
194.7952194236
51
225.7176549047
0
ARC
8
90000_FRAME
62
7
6
CONTINUOUS
10
487.6549271958
20
20.1953320034
40
1.3090920729
50
164.1974860461
51
195.8025139539
0
ARC
8
90000_FRAME
62
7
6
CONTINUOUS
10
488.2119509165
20
19.3070648434
40
2.3669248153
50
86.2218022928
51
120.4272602309
0
ARC
8
90000_FRAME
62
7
6
CONTINUOUS
10
487.9430941340
20
12.6108970224
40
9.0679051661
50
78.6827049226
51
87.3147599624
0
ARC
8
90000_FRAME
62
7
6
CONTINUOUS
10
487.4870249556
20
20.3028397659
40
1.1197474440
50
142.8139179030
51
167.1522951417
0
ARC
8
90000_FRAME
62
7
6
CONTINUOUS
10
487.8323342971
20
19.9962580692
40
1.5805466845
50
121.2140948535
51
141.5254768286
0
ARC
8
90000_FRAME
62
7
6
CONTINUOUS
10
488.4095086628
20
20.8073153978
40
0.8661276052
50
222.7760387596
51
239.0362434679
0
ARC
8
90000_FRAME
62
7
6
CONTINUOUS
10
485.9027990845
20
13.4770431993
40
6.8587735763
50
59.9020272560
51
68.2036481279
0
ARC
8
90000_FRAME
62
7
6
CONTINUOUS
10
489.3112935783
20
22.4029297065
40
2.6987410171
50
240.0481997804
51
251.3779673737
0
ARC
8
90000_FRAME
62
7
6
CONTINUOUS
10
488.6458364115
20
18.2460310912
40
1.4334474881
50
315.8904553224
51
333.5229264373
0
ARC
8
90000_FRAME
62
7
6
CONTINUOUS
10
488.6504746552
20
18.1926239410
40
1.4062287119
50
335.3867972702
51
24.3915119402
0
ARC
8
90000_FRAME
62
7
6
CONTINUOUS
10
488.5782697517
20
18.1147672492
40
1.5047025148
50
25.9562916605
51
59.4834829668
0
ARC
8
90000_FRAME
62
7
6
CONTINUOUS
10
460.5072249853
20
18.7539031539
40
1.1116193606
50
277.7099956934
51
295.6884927746
0
ARC
8
90000_FRAME
62
7
6
CONTINUOUS
10
460.7915349681
20
18.0290773902
40
0.3401689265
50
305.5032212556
51
72.4652898515
0
ARC
8
90000_FRAME
62
7
6
CONTINUOUS
10
460.2255411600
20
21.4307842998
40
4.7567946411
50
252.5939200545
51
280.9816604253
0
ARC
8
90000_FRAME
62
7
6
CONTINUOUS
10
460.6803765230
20
18.8127705633
40
2.1007265953
50
282.4058358513
51
311.8644433923
0
ARC
8
90000_FRAME
62
7
6
CONTINUOUS
10
460.4068121759
20
20.4211122848
40
0.3029626476
50
154.4400348282
51
221.8201698801
0
ARC
8
90000_FRAME
62
7
6
CONTINUOUS
10
460.4860333273
20
20.3418911335
40
0.4103089737
50
102.8287828726
51
149.2259639027
0
ARC
8
90000_FRAME
62
7
6
CONTINUOUS
10
460.9030601630
20
18.5995558036
40
2.2018365570
50
84.0400061859
51
103.3427657872
0
ARC
8
90000_FRAME
62
7
6
CONTINUOUS
10
460.5620963382
20
16.1821918797
40
4.6423737365
50
70.2625858546
51
82.9524186379
0
ARC
8
90000_FRAME
62
7
6
CONTINUOUS
10
460.0480781360
20
20.8538147693
40
3.2587559909
50
247.5300206148
51
280.7579522145
0
ARC
8
90000_FRAME
62
7
6
CONTINUOUS
10
453.6631116640
20
2.6022948089
40
17.3316084133
50
65.3414674650
51
67.3997770736
0
ARC
8
90000_FRAME
62
7
6
CONTINUOUS
10
464.4589740694
20
28.3947211720
40
10.6291642039
50
242.8620101252
51
247.1042029185
0
ARC
8
90000_FRAME
62
7
6
CONTINUOUS
10
460.6040728429
20
20.8607896750
40
2.1662916292
50
227.3119280794
51
242.7040315235
0
ARC
8
90000_FRAME
62
7
6
CONTINUOUS
10
460.0000420332
20
20.1551120342
40
1.2385217340
50
194.7952194234
51
225.7176549042
0
ARC
8
90000_FRAME
62
7
6
CONTINUOUS
10
460.6192238881
20
19.3070648434
40
2.3669248153
50
86.2218022928
51
120.4272602309
0
ARC
8
90000_FRAME
62
7
6
CONTINUOUS
10
460.3503671056
20
12.6108970224
40
9.0679051661
50
78.6827049226
51
87.3147599624
0
ARC
8
90000_FRAME
62
7
6
CONTINUOUS
10
460.2396072687
20
19.9962580692
40
1.5805466846
50
121.2140948541
51
141.5254768290
0
ARC
8
90000_FRAME
62
7
6
CONTINUOUS
10
460.8167816344
20
20.8073153978
40
0.8661276052
50
222.7760387596
51
239.0362434679
0
ARC
8
90000_FRAME
62
7
6
CONTINUOUS
10
458.3100720561
20
13.4770431993
40
6.8587735763
50
59.9020272562
51
68.2036481282
0
ARC
8
90000_FRAME
62
7
6
CONTINUOUS
10
461.7185665499
20
22.4029297065
40
2.6987410171
50
240.0481997804
51
251.3779673734
0
ARC
8
90000_FRAME
62
7
6
CONTINUOUS
10
461.0531093831
20
18.2460310912
40
1.4334474881
50
315.8904553226
51
333.5229264375
0
ARC
8
90000_FRAME
62
7
6
CONTINUOUS
10
461.0577476268
20
18.1926239410
40
1.4062287119
50
335.3867972703
51
24.3915119403
0
ARC
8
90000_FRAME
62
7
6
CONTINUOUS
10
460.9855427233
20
18.1147672492
40
1.5047025147
50
25.9562916611
51
59.4834829676
0
ARC
8
90000_FRAME
62
7
6
CONTINUOUS
10
460.0622001674
20
20.1953320034
40
1.3090920729
50
164.1974860461
51
195.8025139539
0
ARC
8
90000_FRAME
62
7
6
CONTINUOUS
10
459.8942979271
20
20.3028397659
40
1.1197474440
50
142.8139179030
51
167.1522951417
0
CIRCLE
8
10000_FRONT
62
7
6
CONTINUOUS
10
123.3884053805
20
280.9168436571
40
3.0000000000
0
CIRCLE
8
10000_FRONT
62
7
6
CONTINUOUS
10
123.3884053805
20
280.9168436571
40
2.4000000000
0
CIRCLE
8
10000_FRONT
62
7
6
CONTINUOUS
10
123.3884053805
20
280.9168436571
40
6.2500000000
0
ARC
8
10000_FRONT
62
7
6
CONTINUOUS
10
123.3884053805
20
280.9168436571
40
5.9000000000
50
95.0000000000
51
85.0000000000
0
CIRCLE
8
10000_FRONT
62
7
6
CONTINUOUS
10
123.3884053805
20
280.9168436571
40
4.4000000000
0
ARC
8
10000_FRONT
62
7
6
CONTINUOUS
10
246.3884053805
20
283.4168436571
40
2.0000000000
50
0.0000000000
51
90.0000000000
0
ARC
8
10000_FRONT
62
7
6
CONTINUOUS
10
176.3884053805
20
283.4168436571
40
2.0000000000
50
90.0000000000
51
180.0000000000
0
ARC
8
10000_FRONT
62
7
6
CONTINUOUS
10
176.3884053805
20
244.4168436571
40
2.0000000000
50
180.0000000000
51
270.0000000000
0
ARC
8
10000_FRONT
62
7
6
CONTINUOUS
10
246.3884053805
20
244.4168436571
40
2.0000000000
50
270.0000000000
51
360.0000000000
0
ARC
8
10000_FRONT
62
7
6
CONTINUOUS
10
263.3884053805
20
311.4918436571
40
5.1000000000
50
318.1896851042
51
41.8103148958
0
ARC
8
10000_FRONT
62
7
6
CONTINUOUS
10
123.3884053805
20
311.4918436571
40
5.1000000000
50
138.1896851042
51
221.8103148958
0
ARC
8
10000_FRONT
62
7
6
CONTINUOUS
10
123.3884053805
20
311.4918436571
40
5.1000000000
50
318.1896851042
51
41.8103148958
0
ARC
8
10000_FRONT
62
7
6
CONTINUOUS
10
263.3884053805
20
311.4918436571
40
5.1000000000
50
138.1896851042
51
221.8103148958
0
ARC
8
10000_FRONT
62
7
6
CONTINUOUS
10
263.3884053805
20
254.3418436571
40
5.1000000000
50
318.1896851042
51
41.8103148958
0
ARC
8
10000_FRONT
62
7
6
CONTINUOUS
10
123.3884053805
20
254.3418436571
40
5.1000000000
50
138.1896851042
51
221.8103148958
0
ARC
8
10000_FRONT
62
7
6
CONTINUOUS
10
123.3884053805
20
254.3418436571
40
5.1000000000
50
318.1896851042
51
41.8103148958
0
ARC
8
10000_FRONT
62
7
6
CONTINUOUS
10
263.3884053805
20
254.3418436571
40
5.1000000000
50
138.1896851042
51
221.8103148958
0
ARC
8
11000_LEFT
62
7
6
CONTINUOUS
10
417.5659183156
20
341.6112608806
40
0.3000000000
50
300.0000000000
51
25.9495910301
0
ARC
8
11000_LEFT
62
7
6
CONTINUOUS
10
420.1755879681
20
236.0168436571
40
0.5000000000
50
0.0000000000
51
90.0000000000
0
ARC
8
11000_LEFT
62
7
6
CONTINUOUS
10
408.6755879681
20
238.8145616154
40
0.5000000000
50
180.0000000000
51
257.0000000000
0
ARC
8
11000_LEFT
62
7
6
CONTINUOUS
10
409.8186929793
20
232.1875695609
40
0.2000000000
50
347.0000000000
51
77.0000000000
0
ARC
8
11000_LEFT
62
7
6
CONTINUOUS
10
410.6372042775
20
231.9986013381
40
0.2000000000
50
77.0000000000
51
147.0000000000
0
ARC
8
11000_LEFT
62
7
6
CONTINUOUS
10
410.8905000506
20
231.9401234011
40
0.2000000000
50
347.0000000000
51
77.0000000000
0
ARC
8
11000_LEFT
62
7
6
CONTINUOUS
10
411.7090113488
20
231.7511551783
40
0.2000000000
50
77.0000000000
51
147.0000000000
0
ARC
8
11000_LEFT
62
7
6
CONTINUOUS
10
411.9623071218
20
231.6926772414
40
0.2000000000
50
347.0000000000
51
77.0000000000
0
ARC
8
11000_LEFT
62
7
6
CONTINUOUS
10
412.7808184201
20
231.5037090185
40
0.2000000000
50
77.0000000000
51
147.0000000000
0
ARC
8
11000_LEFT
62
7
6
CONTINUOUS
10
413.0341141931
20
231.4452310816
40
0.2000000000
50
347.0000000000
51
77.0000000000
0
ARC
8
11000_LEFT
62
7
6
CONTINUOUS
10
413.8526254913
20
231.2562628587
40
0.2000000000
50
77.0000000000
51
147.0000000000
0
ARC
8
11000_LEFT
62
7
6
CONTINUOUS
10
414.1059212644
20
231.1977849218
40
0.2000000000
50
347.0000000000
51
77.0000000000
0
ARC
8
11000_LEFT
62
7
6
CONTINUOUS
10
414.9244325626
20
231.0088166990
40
0.2000000000
50
77.0000000000
51
147.0000000000
0
ARC
8
11000_LEFT
62
7
6
CONTINUOUS
10
415.1777283356
20
230.9503387620
40
0.2000000000
50
347.0000000000
51
77.0000000000
0
ARC
8
11000_LEFT
62
7
6
CONTINUOUS
10
415.9962396339
20
230.7613705392
40
0.2000000000
50
77.0000000000
51
147.0000000000
0
ARC
8
11000_LEFT
62
7
6
CONTINUOUS
10
416.2495354069
20
230.7028926022
40
0.2000000000
50
347.0000000000
51
77.0000000000
0
ARC
8
11000_LEFT
62
7
6
CONTINUOUS
10
417.0680467051
20
230.5139243794
40
0.2000000000
50
77.0000000000
51
147.0000000000
0
ARC
8
11000_LEFT
62
7
6
CONTINUOUS
10
417.3213424782
20
230.4554464425
40
0.2000000000
50
347.0000000000
51
77.0000000000
0
ARC
8
11000_LEFT
62
7
6
CONTINUOUS
10
418.1398537764
20
230.2664782196
40
0.2000000000
50
77.0000000000
51
147.0000000000
0
ARC
8
11000_LEFT
62
7
6
CONTINUOUS
10
418.3931495494
20
230.2080002827
40
0.2000000000
50
347.0000000000
51
77.0000000000
0
ARC
8
11000_LEFT
62
7
6
CONTINUOUS
10
411.1194300997
20
235.3767047013
40
0.2000000000
50
257.0000000000
51
347.0000000000
0
ARC
8
11000_LEFT
62
7
6
CONTINUOUS
10
411.9379413979
20
235.1877364785
40
0.2000000000
50
187.0000000000
51
257.0000000000
0
ARC
8
11000_LEFT
62
7
6
CONTINUOUS
10
412.1912371710
20
235.1292585415
40
0.2000000000
50
257.0000000000
51
347.0000000000
0
ARC
8
11000_LEFT
62
7
6
CONTINUOUS
10
413.0097484692
20
234.9402903187
40
0.2000000000
50
187.0000000000
51
257.0000000000
0
ARC
8
11000_LEFT
62
7
6
CONTINUOUS
10
413.2630442422
20
234.8818123817
40
0.2000000000
50
257.0000000000
51
347.0000000000
0
ARC
8
11000_LEFT
62
7
6
CONTINUOUS
10
414.0815555405
20
234.6928441589
40
0.2000000000
50
187.0000000000
51
257.0000000000
0
ARC
8
11000_LEFT
62
7
6
CONTINUOUS
10
414.3348513135
20
234.6343662220
40
0.2000000000
50
257.0000000000
51
347.0000000000
0
ARC
8
11000_LEFT
62
7
6
CONTINUOUS
10
415.1533626117
20
234.4453979991
40
0.2000000000
50
187.0000000000
51
257.0000000000
0
ARC
8
11000_LEFT
62
7
6
CONTINUOUS
10
415.4066583848
20
234.3869200622
40
0.2000000000
50
257.0000000000
51
347.0000000000
0
ARC
8
11000_LEFT
62
7
6
CONTINUOUS
10
416.2251696830
20
234.1979518393
40
0.2000000000
50
187.0000000000
51
257.0000000000
0
ARC
8
11000_LEFT
62
7
6
CONTINUOUS
10
416.4784654560
20
234.1394739024
40
0.2000000000
50
257.0000000000
51
347.0000000000
0
ARC
8
11000_LEFT
62
7
6
CONTINUOUS
10
417.2969767543
20
233.9505056796
40
0.2000000000
50
187.0000000000
51
257.0000000000
0
ARC
8
11000_LEFT
62
7
6
CONTINUOUS
10
417.5502725273
20
233.8920277426
40
0.2000000000
50
257.0000000000
51
347.0000000000
0
ARC
8
11000_LEFT
62
7
6
CONTINUOUS
10
418.3687838255
20
233.7030595198
40
0.2000000000
50
187.0000000000
51
257.0000000000
0
ARC
8
11000_LEFT
62
7
6
CONTINUOUS
10
418.6220795986
20
233.6445815828
40
0.2000000000
50
257.0000000000
51
347.0000000000
0
ARC
8
11000_LEFT
62
7
6
CONTINUOUS
10
419.4405908968
20
233.4556133600
40
0.2000000000
50
187.0000000000
51
257.0000000000
0
ARC
8
11000_LEFT
62
7
6
CONTINUOUS
10
419.6938866698
20
233.3971354231
40
0.2000000000
50
257.0000000000
51
347.0000000000
0
ARC
8
11000_LEFT
62
7
6
CONTINUOUS
10
420.1755879681
20
234.1839420100
40
0.5000000000
50
257.0000000000
51
360.0000000000
0
ARC
8
11000_LEFT
62
7
6
CONTINUOUS
10
420.1755879681
20
222.4168436571
40
0.5000000000
50
270.0000000000
51
360.0000000000
0
ARC
8
11000_LEFT
62
7
6
CONTINUOUS
10
416.7255879681
20
222.4168436571
40
0.5000000000
50
180.0000000000
51
270.0000000000
0
ARC
8
11000_LEFT
62
7
6
CONTINUOUS
10
409.6255879681
20
222.4168436571
40
0.5000000000
50
270.0000000000
51
360.0000000000
0
ARC
8
11000_LEFT
62
7
6
CONTINUOUS
10
406.1755879681
20
222.4168436571
40
0.5000000000
50
180.0000000000
51
270.0000000000
0
ARC
8
11000_LEFT
62
7
6
CONTINUOUS
10
409.6255879681
20
227.6776191098
40
1.5000000000
50
81.5524727521
51
180.0000000000
0
ARC
8
11000_LEFT
62
7
6
CONTINUOUS
10
409.8255879681
20
224.1168436571
40
0.3000000000
50
0.0000000000
51
90.0000000000
0
ARC
8
11000_LEFT
62
7
6
CONTINUOUS
10
416.5255879681
20
224.1168436571
40
0.3000000000
50
90.0000000000
51
180.0000000000
0
ARC
8
11000_LEFT
62
7
6
CONTINUOUS
10
408.4255879681
20
224.7168436571
40
0.3000000000
50
180.0000000000
51
270.0000000000
0
ARC
8
11000_LEFT
62
7
6
CONTINUOUS
10
417.9255879681
20
224.7168436571
40
0.3000000000
50
270.0000000000
51
360.0000000000
0
ARC
8
11000_LEFT
62
7
6
CONTINUOUS
10
418.6755879681
20
329.4168436571
40
0.5000000000
50
180.0000000000
51
270.0000000000
0
ARC
8
11000_LEFT
62
7
6
CONTINUOUS
10
408.6755879681
20
332.6679144847
40
0.5000000000
50
120.0000000000
51
180.0000000000
0
ARC
8
11000_LEFT
62
7
6
CONTINUOUS
10
417.6755879681
20
337.8640669074
40
0.5000000000
50
0.0000000000
51
120.0000000000
0
ARC
8
11000_LEFT
62
7
6
CONTINUOUS
10
419.6755879681
20
329.9168436571
40
1.0000000000
50
270.0000000000
51
360.0000000000
0
ARC
8
11000_LEFT
62
7
6
CONTINUOUS
10
408.6755879681
20
332.6679144847
40
3.0000000000
50
120.0000000000
51
180.0000000000
0
ARC
8
11000_LEFT
62
7
6
CONTINUOUS
10
405.6755879681
20
231.4168436571
40
0.3000000000
50
270.0000000000
51
90.0000000000
0
ARC
8
11000_LEFT
62
7
6
CONTINUOUS
10
405.6755879681
20
230.2168436571
40
0.3000000000
50
270.0000000000
51
90.0000000000
0
ARC
8
11000_LEFT
62
7
6
CONTINUOUS
10
405.6755879681
20
229.0168436571
40
0.3000000000
50
270.0000000000
51
90.0000000000
0
ARC
8
11000_LEFT
62
7
6
CONTINUOUS
10
405.6755879681
20
227.8168436571
40
0.3000000000
50
270.0000000000
51
90.0000000000
0
ARC
8
11000_LEFT
62
7
6
CONTINUOUS
10
405.6755879681
20
226.6168436571
40
0.3000000000
50
270.0000000000
51
90.0000000000
0
ARC
8
11000_LEFT
62
7
6
CONTINUOUS
10
410.3037020948
20
229.0933613610
40
0.3000000000
50
351.5524727521
51
171.5524727521
0
ARC
8
11000_LEFT
62
7
6
CONTINUOUS
10
411.4906830737
20
228.9170770573
40
0.3000000000
50
351.5524727521
51
171.5524727521
0
ARC
8
11000_LEFT
62
7
6
CONTINUOUS
10
412.6776640526
20
228.7407927535
40
0.3000000000
50
351.5524727521
51
171.5524727521
0
ARC
8
11000_LEFT
62
7
6
CONTINUOUS
10
413.8646450315
20
228.5645084497
40
0.3000000000
50
351.5524727521
51
171.5524727521
0
ARC
8
11000_LEFT
62
7
6
CONTINUOUS
10
415.0516260104
20
228.3882241459
40
0.3000000000
50
351.5524727521
51
171.5524727521
0
ARC
8
11000_LEFT
62
7
6
CONTINUOUS
10
416.2386069893
20
228.2119398421
40
0.3000000000
50
351.5524727521
51
171.5524727521
0
ARC
8
11000_LEFT
62
7
6
CONTINUOUS
10
417.4255879681
20
228.0356555383
40
0.3000000000
50
351.5524727521
51
171.5524727521
0
ARC
8
11000_LEFT
62
7
6
CONTINUOUS
10
419.1755879681
20
342.4168436571
40
1.5000000000
50
0.0000000000
51
187.8163660731
0
ARC
8
11000_LEFT
62
7
6
CONTINUOUS
10
414.2540489372
20
336.4659906960
40
0.3000000000
50
210.0000000000
51
30.0000000000
0
ARC
8
11000_LEFT
62
7
6
CONTINUOUS
10
413.2148184527
20
335.8659906960
40
0.3000000000
50
210.0000000000
51
30.0000000000
0
ARC
8
11000_LEFT
62
7
6
CONTINUOUS
10
412.1755879681
20
335.2659906960
40
0.3000000000
50
210.0000000000
51
30.0000000000
0
ARC
8
11000_LEFT
62
7
6
CONTINUOUS
10
410.1755879681
20
233.8498908437
40
1.5000000000
50
77.0000000000
51
257.0000000000
0
CIRCLE
8
91000_TIP
62
7
6
CONTINUOUS
10
439.2797809364
20
18.3043439202
40
4.9999998979
0
CIRCLE
8
91000_TIP
62
7
6
CONTINUOUS
10
439.2797809364
20
18.3043439202
40
2.4999999489
0
ENDSEC
0
EOF
